Последний корабль / The Last Ship / Сезон: 1 / Серии: 1-10 из 10 [2014, Фантастика, боевик, WEB-DLRip]

Ответить на тему

Статистика раздачи [Обновить пиров]
Размер:  5.93 GB   |    Зарегистрирован:  1 год 4 месяца   |    Скачан:  3 раза

Полного источника не было: 1 месяц 5 дней

 
 
 
 
Автор Сообщение

Admin ®

Стаж: 7 месяцев 16 дней

Сообщений: 4460

Откуда: trackeroc.ru


Пост 14-Июл-2015 17:36

[Цитировать]

Последний корабль / The Last Ship
Год выпуска: 2014
Страна: США, Platinum Dunes
Жанр: Фантастика, боевик
Продолжительность: ~00:45:00
Перевод: Профессиональный (многоголосый закадровый) LostFilm
Русские субтитры: нет
Режиссёр: Майкл Кэтлман, Джонатан Мостоу, Брэд Тернер
В ролях: Рона Митра, Эрик Дэйн, Адам Болдуин, Михаэлла МакМанус, Марисса Нейтлинг, Трэвис Ван Винкл, Чарльз Парнелл, Кристина Элмор, Джоко Симс, Джон Пайпер-Фергюсон, Кевин Майкл Мартин
Описание: Сериал Последний корабль являет собой новый пример фильма-катастрофы. Смертоносная пандемия планетарного масштаба, распространившись по Земле, убивает подавляющую часть человечества. Выжить удается лишь нескольким процентам, но их выживание лишь отсрочка перед неминуемым концом. Смерть для них — это вопрос времени, ведь в сложившихся условиях спастись очень трудно.
Задумайтесь на мгновенье, цивилизация практически уничтожена, жалкие крохи, что ещё дышат, обречены на многочисленные лишения и постоянную борьбу за выживание. Однако даже в этом апокалипсисе надежда ещё есть. Военный корабль, до которого не смогла добраться зараза, курсирует из порта в порт, пополняя запасы, а заодно и собирая оставшихся в живых людей из опустевших городов. Теперь этот корабль едва ли не последняя надежда на спасение всего человечества.
Сэмпл
Качество: WEB-DLRip
Формат: AVI
Видео кодек: XviD
Аудио кодек: MP3
Видео: 720x400, 23.976 fps, XviD ~1915 kbps avg, 0.277 bit/pixel
Аудио: MP3, 2 ch, 192 Кбит/с

MediaInfo

Format : AVI
Format/Info : Audio Video Interleave
File size : 683 MiB
Duration : 45mn 42s
Overall bit rate mode : Variable
Overall bit rate : 2 089 Kbps
Writing application : Nandub v1.0rc2
Writing library : Nandub build 1853/release
Video
ID : 0
Format : MPEG-4 Visual
Format profile : Advanced Simple@L5
Format settings, BVOP : No
Format settings, QPel : No
Format settings, GMC : No warppoints
Format settings, Matrix : Default (H.263)
Codec ID : XVID
Codec ID/Hint : XviD
Duration : 45mn 42s
Bit rate : 1 915 Kbps
Width : 720 pixels
Height : 400 pixels
Display aspect ratio : 16:9
Frame rate : 23.976 fps
Color space : YUV
Chroma subsampling : 4:2:0
Bit depth : 8 bits
Scan type : Progressive
Compression mode : Lossy
Bits/(Pixel*Frame) : 0.277
Stream size : 626 MiB (92%)
Writing library : XviD 1.2.1 (UTC 2008-12-04)
Audio
ID : 1
Format : MPEG Audio
Format version : Version 1
Format profile : Layer 3
Mode : Joint stereo
Mode extension : MS Stereo
Codec ID : 55
Codec ID/Hint : MP3
Duration : 45mn 42s
Bit rate mode : Variable
Bit rate : 161 Kbps
Nominal bit rate : 192 Kbps
Channel(s) : 2 channels
Sampling rate : 48.0 KHz
Compression mode : Lossy
Stream size : 52.7 MiB (8%)
Alignment : Aligned on interleaves
Interleave, duration : 24 ms (0.58 video frame)
Interleave, preload duration : 571 ms
Writing library : LAME3.97b
Encoding settings : -m j -V 4 -q 3 -lowpass 18.6 --abr 192

Скриншоты

Внимание! Раздача ведётся путём добавления новых серий

Внимание! Раздача ведётся путём добавления новых серий; при каждом добавлении создаётся новый торрент. Чтобы начать докачку новой серии, пользователям необходимо сделать следующее:
(1) остановить скачивание,
(2) удалить старый торрент у себя из клиента (старые серии удалять не надо),
(3) скачать новый торрент и запустить его у себя в клиенте вместо старого, при этом указать клиенту путь в старую папку куда и должно происходить скачивание новых серий.
Ваш клиент при этом должен произвести хеширование (проверку) старой папки (если не производит сам - помогите ему сделать это), и будет докачивать только те серии которых у вас ещё нет. Старые серии при этом не удаляются, а продолжают раздаваться!
Eсли вы уже удалили старые серии, то предотвратить повторную закачку старых серий можно, отжав галочку в соответствующих местах при запуске нового торрента. По возможности, желательно не удалять старые серии как можно дольше чтобы релизёр не столько продолжал раздавать старые серии, а смог сконцентрироваться на новых.


Смотреть онлайн

[trackeroc.ru].6956.torrent 
Торрент: Зарегистрирован   [ 2015-07-14 17:36 ]

Скачать торрент

31 KB

Статус: проверено
Скачан: 16 раз
Размер: 5.93 GB
 

Похожие торренты
Форум Тема Автор Размер
Зарубежные сериалы Последний человек на Земле / The Last Man on Earth / Сезон: 3 / Серии: 1-7 из 20 Admin 1.38 GB
Зарубежные сериалы Последний корабль / The Last Ship (2016) (сезон 3, серии 1-12 из 13) Admin 6.95 GB
Квесты , я ищу , Поиск предметов Hidden Object Final Cut 6. Fade to Black [CE] / Последний дубль 6: Затемнение [КИ] [P] [RUS / ENG] (2016) HOPE 1006 MB
Сasual games, Тайм менеджмент Невероятный Дракула 2. Последний звонок / Incredible Dracula 2 The Last Call (2016) (RUS) Admin 661 MB
Боевики Последний налёт / The Last Heist (2016) HDRip BiOS 1.59 GB

_________________
[Профиль] [ЛС]

Darth Pepel

Стаж: 1 год 10 месяцев

Сообщений: 57


Пост 14-Июл-2015 22:49 (спустя 5 часов)

[Цитировать]

фильмы про катастрофы очень интересны
про сериал пока сказать не могу - над посмотреть, НО пару идиотских моментов уже видать
2 скрин - понимаю - почему они периодически ищут новых людей. Деффка рядом стоит в скафе биозащиты(правда почему-то ненадутом), а чувак рядом обходится только ватно-марлевым намордником. Выжившие просто обязаны нести споры или чем там размножаются агенты мировых пандемий. Приводить их на корабль , без обеспечения карантинных мероприятий - в будущем он просто гроб.
касательно корабля - какая у него силовая установка? более менее длительное трепыхание может обеспечить только ЯСУ, правда все равно остается вопрос про запчасти и еду(которая может быть заражена), площадей под производство и сельское хозяйство чет не видать. Почти реальные корабли из постапок-а видно было в "Водном Мире". Вертолет, (оставим за кадром тот же вопрос про запчасти и топливо), пилот по умолчанию бессмертен наверно - или это очередной штамп на тему - пилот имел летную практику на "сессне"(вообще-то самолет) - и потом у него прошивка позволяет спокойно вести любое летающее средство.
в идеале - авианосец - потому как площадь позволяет не только организовать автономное производство, но и собирать напрямую дождевую воду, обеззараживать ее легче, чем добирать ее же из океана, тратя время и ресурсы на опреснение. А тут какой-то типа передовой эсминец типа "зумволт" = просто ржака. А, да, забыл - обслуга корабля тоже бессмертна - иначе как кататься - эт ведь не прогулочный катер.
ЗЫ Спасибо за внимание.

[Профиль] [ЛС]

Admin ®

Стаж: 7 месяцев 16 дней

Сообщений: 4460

Откуда: trackeroc.ru


Пост 14-Июл-2015 23:45 (спустя 55 минут)

[Цитировать]

Darth Pepel,
сериал не плохой
вот 2 сезон http://trackeroc.ru/viewtopic.php?t=3574


_________________
[Профиль] [ЛС]
Показать сообщения:    
Ответить на тему

Текущее время: Сегодня 08:01

Часовой пояс: GMT + 4



Вы не можете начинать темы
Вы не можете отвечать на сообщения
Вы не можете редактировать свои сообщения
Вы не можете удалять свои сообщения
Вы не можете голосовать в опросах
Вы не можете прикреплять файлы к сообщениям
Вы можете скачивать файлы