Последний охотник на ведьм / The Last Witch Hunter (2015) WEB-DL [H.264/720p-LQ]

Ответить на тему

Статистика раздачи [Обновить пиров]
Размер:  3.26 GB   |    Зарегистрирован:  10 месяцев 30 дней   |    Скачан:  5 раз

Полного источника не было: 4 месяца 12 дней

 
 
 
 
Автор Сообщение

BiOS ®

Стаж: 2 года 7 месяцев

Сообщений: 1740

Откуда: Raccoon City


Пост 12-Янв-2016 07:03

[Цитировать]

Последний охотник на ведьм / The Last Witch Hunter - Производство: США / Summit Entertainment, Lionsgate Company
Жанр: Фэнтези, боевик, приключения
Режиссер: Брек Эйснер
Актеры: Вин Дизель, Роуз Лесли, Элайджа Вуд, Оулавюр Дарри Оулафссон, Рина Оуэн, Юли Энгельбрехт, Майкл Кейн, Джозеф Гилган, Исаак Де Банколе, Майкл Халсли, Слоун Кумбс, Лотте Вербеек, Доун Оливери, Инбар Лави, Армани Джексон, Эйми Карреро, Бекс Тейлор-Клаус, Дэвид Уэйлен, Джэк Эрди, Туссэн Рафаэль Абессоло
Описание: Современный мир скрывает множество секретов, но самым удивительным из них является то, что ведьмы до сих пор живут среди нас. Это злобные сверхъестественные существа, чья цель — наслать на мир смертоносную чуму. Армии охотников на ведьм сражались с ними на протяжении многих веков. В наши дни остался всего лишь один охотник на ведьм, Колдер, которому однажды удалось убить всемогущую королеву ведьм. Но Колдер еще не знает, что королева воскресла и жаждет отомстить своему убийце…
Дата мировой премьеры: 13 октября 2015
Дата премьеры в России: 29 октября 2015

Продолжительность: 01:46:26
Качество видео: WEB-DL (720p-LQ)
Перевод: Дублированный (iTunes)
Субтитры: Отсутствуют
Видео: AVC, 1280x720 (16:9), 24.000 fps, 3 915 Kbps (0.177 bit/pixel)
Аудио: AC-3, 48.0 KHz, 6 ch, 384 Kbps, CBR

MediaInfo:

Код:
Общее
Уникальный идентификатор                 : 254459327802375725408452152788730384531 (0xBF6F157AC0F8D16886C4902E7DFA1093)
Полное имя                               : C:\Последний охотник на ведьм\Ohotnik na vedjm 2015 WEB-DL 720p-LQ.mkv
Формат                                   : Matroska
Версия формата                           : Version 4 / Version 2
Размер файла                             : 3,26 Гбайт
Продолжительность                        : 1 ч. 46 м.
Общий поток                              : 4387 Кбит/сек
Дата кодирования                         : UTC 2016-01-11 19:31:22
Программа кодирования                    : mkvmerge v8.3.0 ('Over the Horizon') 64bit
Библиотека кодирования                   : libebml v1.3.1 + libmatroska v1.4.2
DURATION                                 : 01:46:26.848000000
NUMBER_OF_FRAMES                         : 199589
NUMBER_OF_BYTES                          : 306568704
_STATISTICS_WRITING_APP                  : mkvmerge v8.3.0 ('Over the Horizon') 64bit
_STATISTICS_WRITING_DATE_UTC             : 2016-01-11 19:31:22
_STATISTICS_TAGS                         : BPS DURATION NUMBER_OF_FRAMES NUMBER_OF_BYTES
Видео
Идентификатор                            : 1
Формат                                   : AVC
Формат/Информация                        : Advanced Video Codec
Профиль формата                          : High@L3.1
Параметр CABAC формата                   : Нет
Параметр ReFrames формата                : 2 кадра
Идентификатор кодека                     : V_MPEG4/ISO/AVC
Продолжительность                        : 1 ч. 46 м.
Битрейт                                  : 3915 Кбит/сек
Ширина                                   : 1280 пикселей
Высота                                   : 720 пикселей
Соотношение сторон                       : 16:9
Частота кадров                           : 24,000 кадра/сек
Цветовое пространство                    : YUV
Субдискретизация насыщенности            : 4:2:0
Битовая глубина                          : 8 бит
Тип развёртки                            : Прогрессивная
Бит/(Пиксели*Кадры)                      : 0.177
Размер потока                            : 2,91 Гбайт (89%)
Язык                                     : English
Default                                  : Да
Forced                                   : Нет
Основные цвета                           : BT.709-5, BT.1361, IEC 61966-2-4, SMPTE RP177
Характеристики трансфера                 : BT.709-5, BT.1361
Коэффициенты матрицы                     : BT.709-5, BT.1361, IEC 61966-2-4 709, SMPTE RP177
Аудио
Идентификатор                            : 2
Формат                                   : AC-3
Формат/Информация                        : Audio Coding 3
Расширение режима                        : CM (complete main)
Идентификатор кодека                     : A_AC3
Продолжительность                        : 1 ч. 46 м.
Вид битрейта                             : Постоянный
Битрейт                                  : 384 Кбит/сек
Каналы                                   : 6 каналов
Расположение каналов                     : Front: L C R, Side: L R, LFE
Частота                                  : 48,0 КГц
Битовая глубина                          : 16 бит
Метод сжатия                             : С потерями
Размер потока                            : 292 Мбайт (9%)
Язык                                     : Russian
Default                                  : Да
Forced                                   : Нет
Меню
00:00:00.000                             : en:Глава 1
00:05:21.000                             : en:Глава 2
00:12:06.000                             : en:Глава 3
00:18:03.000                             : en:Глава 4
00:25:15.000                             : en:Глава 5
00:30:58.000                             : en:Глава 6
00:36:21.000                             : en:Глава 7
00:42:57.000                             : en:Глава 8
00:49:17.000                             : en:Глава 9
00:54:59.000                             : en:Глава 10
01:00:28.000                             : en:Глава 11
01:05:48.000                             : en:Глава 12
01:12:07.000                             : en:Глава 13
01:17:47.000                             : en:Глава 14
01:23:42.000                             : en:Глава 15
01:29:42.000                             : en:Глава 16
01:35:48.000                             : en:Глава 17
-Скриншоты: 

Смотреть онлайн

[trackeroc.ru].10959.torrent 
Торрент: Зарегистрирован   [ 2016-01-12 07:03 ]

Скачать торрент

17 KB

Статус: проверено
Скачан: 20 раз
Размер: 3.26 GB
 

Dreamka (12-янв-16), trackerbot (13-янв-16)
Похожие торренты
Форум Тема Автор Размер
Квесты , я ищу , Поиск предметов Hidden Object Demon Hunter 3: Revelation CE / Охотник на демонов 3: Разоблачение КИ (2016) (ENG) [P] [Wendy99] BiOS 979 MB
Зарубежные сериалы Последний человек на Земле / The Last Man on Earth / Сезон: 3 / Серии: 1-7 из 20 Admin 1.38 GB
Зарубежные сериалы Последний корабль / The Last Ship (2016) (сезон 3, серии 1-12 из 13) Admin 6.95 GB
Квесты , я ищу , Поиск предметов Hidden Object Final Cut 6. Fade to Black [CE] / Последний дубль 6: Затемнение [КИ] [P] [RUS / ENG] (2016) HOPE 1006 MB
Сasual games, Тайм менеджмент Невероятный Дракула 2. Последний звонок / Incredible Dracula 2 The Last Call (2016) (RUS) Admin 661 MB

_________________
[Профиль] [ЛС]
Показать сообщения:    
Ответить на тему

Текущее время: Сегодня 11:51

Часовой пояс: GMT + 4



Вы не можете начинать темы
Вы не можете отвечать на сообщения
Вы не можете редактировать свои сообщения
Вы не можете удалять свои сообщения
Вы не можете голосовать в опросах
Вы не можете прикреплять файлы к сообщениям
Вы можете скачивать файлы