Последний охотник на ведьм / The Last Witch Hunter (2015) WEB-DLRip

Ответить на тему

Статистика раздачи [Обновить пиров]
Размер:  1.45 GB   |    Зарегистрирован:  10 месяцев 20 дней   |    Скачан:  7 раз

Полного источника не было: 21 час

 
 
 
 
Автор Сообщение

BiOS ®

Стаж: 2 года 7 месяцев

Сообщений: 1730

Откуда: Raccoon City


Пост 13-Янв-2016 15:26

[Цитировать]

Последний охотник на ведьм / The Last Witch Hunter - Производство: США, Summit Entertainment, Lionsgate Company
Жанр: Фэнтези, Боевик, Приключения
Режиссер: Брек Эйснер
Продюсер: Марк Кантон, Берни Голдманн, Адам Голдворм
Актеры: Вин Дизель, Роуз Лесли, Элайджа Вуд, Оулавюр Дарри Оулафссон, Рина Оуэн, Юли Энгельбрехт, Майкл Кейн, Джозеф Гилган, Исаак Де Банколе, Майкл Халсли
Описание:
Современный мир скрывает множество секретов, но самым удивительным из них является то, что ведьмы до сих пор живут среди нас. Это злобные сверхъестественные существа, чья цель — наслать на мир смертоносную чуму. Армии охотников на ведьм сражались с ними на протяжении многих веков.
В наши дни остался всего лишь один охотник на ведьм, Колдер, которому однажды удалось убить всемогущую королеву ведьм. Но Колдер еще не знает, что королева воскресла и жаждет отомстить своему убийце…
Рейтинг MPAA: PG-13
Возраст: 16+
Дата мировой премьеры: 13 октября 2015
Дата премьеры в России: 29 октября 2015, «Централ Партнершип»
Продолжительность: 01:46:26
Качество видео: WEB-DLRip
Перевод: Дублированный (iTunes)
Вид субтитров: Отсутствуют
Видео: XviD, 720x400, 1563 Kb/s
Аудио: 48 kHz, AC3 Dolby Digital, 3/2 (L,C,R,l,r) + LFE ch, ~384 kbps
Семпл: Скачать

MI

Код:
Общее
Полное имя                               : D:\Последний.охотник.на.ведьм.2015.WEB-DLRip.avi
Формат                                   : AVI
Формат/Информация                        : Audio Video Interleave
Размер файла                             : 1,45 Гбайт
Продолжительность                        : 1 ч. 46 м.
Общий поток                              : 1956 Кбит/сек
Программа кодирования                    : VirtualDubMod 1.5.10.2 (build 2540/release)
Библиотека кодирования                   : VirtualDubMod build 2540/release
Видео
Идентификатор                            : 0
Формат                                   : MPEG-4 Visual
Профиль формата                          : Advanced Simple@L5
Параметр BVOP формата                    : 2
Параметр QPel формата                    : Нет
Параметр GMC формата                     : Без точки перехода
Параметр матрицы формата                 : Default (MPEG)
Идентификатор кодека                     : XVID
Идентификатор кодека/Подсказка           : XviD
Продолжительность                        : 1 ч. 46 м.
Битрейт                                  : 1563 Кбит/сек
Ширина                                   : 720 пикселей
Высота                                   : 400 пикселей
Соотношение сторон                       : 16:9
Частота кадров                           : 24,000 кадра/сек
Цветовое пространство                    : YUV
Субдискретизация насыщенности            : 4:2:0
Битовая глубина                          : 8 бит
Тип развёртки                            : Прогрессивная
Метод сжатия                             : С потерями
Бит/(Пиксели*Кадры)                      : 0.226
Размер потока                            : 1,16 Гбайт (80%)
Библиотека кодирования                   : XviD 1.2.1 (UTC 2008-12-04)
Аудио
Идентификатор                            : 1
Формат                                   : AC-3
Формат/Информация                        : Audio Coding 3
Расширение режима                        : CM (complete main)
Параметр Endianness формата              : Big
Идентификатор кодека                     : 2000
Продолжительность                        : 1 ч. 46 м.
Вид битрейта                             : Постоянный
Битрейт                                  : 384 Кбит/сек
Каналы                                   : 6 каналов
Расположение каналов                     : Front: L C R, Side: L R, LFE
Частота                                  : 48,0 КГц
Метод сжатия                             : С потерями
Размер потока                            : 292 Мбайт (20%)
Выравнивание                             : Разделение по промежуткам
Продолжительность промежутка             : 42  мс. (1,00 видеокадр)
Время предзагрузки промежутка            : 500  мс.
-Скриншоты:


Смотреть онлайн

[trackeroc.ru].10975.torrent 
Торрент: Зарегистрирован   [ 2016-01-13 15:26 ]

Скачать торрент

15 KB

Статус: проверено
Скачан: 24 раз
Размер: 1.45 GB
 

trackerbot (14-янв-16), Admin (16-янв-16)
Похожие торренты
Форум Тема Автор Размер
Зарубежные сериалы Последний человек на Земле / The Last Man on Earth / Сезон: 3 / Серии: 1-5 из 20 Admin 4.67 GB
Зарубежные сериалы Последний корабль / The Last Ship (2016) (сезон 3, серии 1-12 из 13) Admin 6.95 GB
Квесты , я ищу , Поиск предметов Hidden Object Final Cut 6. Fade to Black [CE] / Последний дубль 6: Затемнение [КИ] [P] [RUS / ENG] (2016) HOPE 1006 MB
Сasual games, Тайм менеджмент Невероятный Дракула 2. Последний звонок / Incredible Dracula 2 The Last Call (2016) (RUS) Admin 661 MB
Боевики Последний налёт / The Last Heist (2016) HDRip BiOS 1.59 GB

_________________
[Профиль] [ЛС]
Показать сообщения:    
Ответить на тему

Текущее время: Сегодня 21:54

Часовой пояс: GMT + 4



Вы не можете начинать темы
Вы не можете отвечать на сообщения
Вы не можете редактировать свои сообщения
Вы не можете удалять свои сообщения
Вы не можете голосовать в опросах
Вы не можете прикреплять файлы к сообщениям
Вы можете скачивать файлы