Последствия / Aftermath (2017) WEB-DLRip скачать торрент

Ответить на тему

Статистика раздачи [Обновить пиров]
Размер:  1.37 GB   |    Зарегистрирован:  4 месяца 8 дней   |    Скачан:  4 раза
Сидов:  464  [  0 KB/s  ]   Личеров:  108  [  0 KB/s  ]   Подробная статистика пиров
 
   
 
 
Автор Сообщение

Admin ®

Стаж: 3 года 3 месяца

Сообщений: 5214

Откуда: Скачать торрент


Пост 09-Апр-2017 10:36

[Цитировать]

Последствия / Aftermath «Vengeance is a journey with no return»- Производство: США, Emmett/Furla Films, Hat and Cat Productions
Жанр: Триллер, Драма
Режиссер: Эллиотт Лестер
Продюсер: Даррен Аронофски, Рэндолл Эмметт
Актеры: Арнольд Шварценеггер, Мэгги Грэйс, Кевин Зегерс, Скут МакНэри, Ханна Уэр, Мариана Клавено, Гленн Моршауэр, Ларри Салливан, Мартин Донован, Мо
Описание:
Ожидающий прилета своей семьи Роман узнает, что случилось непоправимое. Произошла авиакатастрофа и его любимые — жена и беременная дочь — погибли.
Потеряв тех, ради кого жил, он преследует единственную цель: посмотреть в глаза невольного убийцы и услышать слова сожаления. Более года поиска приводит Романа к авиадиспетчеру Джейку, управлявшему курсом самолета в момент катастрофы.

Возраст: 18+ (зрителям, достигшим 18 лет. запрещено для детей)
Рейтинг MPAA: R (лицам до 17 лет обязательно присутствие взрослого)
Дата мировой премьеры: 6 апреля 2017
Дата российской премьеры: 6 апреля 2017, «Люксор»
Продолжительность: 01:35:10
Качество видео: WEB-DLRip
Перевод: Многоголосый закадровый (MUZOBOZ)
Субтитры: Отсутствуют
Реклама: Присутствуют голосовые, видео и текстовые вставки рекламы
Видео: XviD, 720x304, 1660 Кбит/с
Аудио: AC3, 2 ch, 384 Кбит/с

MediaInfo:

General
Format : AVI
Format/Info : Audio Video Interleave
File size : 1.37 GiB
Duration : 1h 35mn
Overall bit rate : 2 054 Kbps
Writing application : VirtualDubMod 1.5.10.2 (build 2540/release)
Writing library : VirtualDubMod build 2540/release
Video
ID : 0
Format : MPEG-4 Visual
Format profile : Advanced Simple@L5
Format settings, BVOP : Yes
Format settings, QPel : No
Format settings, GMC : No warppoints
Format settings, Matrix : Default (MPEG)
Codec ID : XVID
Codec ID/Hint : XviD
Duration : 1h 35mn
Bit rate : 1 661 Kbps
Width : 720 pixels
Height : 304 pixels
Display aspect ratio : 2.35:1
Frame rate : 23.976 fps
Resolution : 8 bits
Colorimetry : 4:2:0
Scan type : Progressive
Bits/(Pixel*Frame) : 0.316
Stream size : 1.10 GiB (81%)
Writing library : XviD 1.2.1 (UTC 2008-12-04)
Audio
ID : 1
Format : AC-3
Format/Info : Audio Coding 3
Codec ID : 2000
Duration : 1h 35mn
Bit rate mode : Constant
Bit rate : 384 Kbps
Channel(s) : 2 channels
Channel positions : L R
Sampling rate : 48.0 KHz
Stream size : 262 MiB (19%)
Alignment : Split accross interleaves
Interleave, duration : 42 ms (1.00 video frame)
Interleave, preload duration : 500 ms
-Скриншоты:


Смотреть онлайн


[trackeroc.ru].19673.torrent 
Торрент: Зарегистрирован   [ 2017-04-09 10:36 ]

Скачать торрент

15 KB

Статус: проверено
Скачан: 29 раз
Размер: 1.37 GB
 

Похожие торренты
Форум Тема Автор Размер
Зарубежные сериалы Постфактум / Последствия / После / The After (2014) WEBRip (сезон 1, серии 1-1 из 1) NewStudio BiOS 1.65 GB
Зарубежные сериалы Жизнь после /Последствия / Aftermath (2016) HDTVRip [H.264/720p-LQ] (сезон 1, серии 1-13 из 13) Jaskier BiOS 12.57 GB
Зарубежные сериалы Жизнь после / Последствия / Aftermath (2016) WEB-DLRip [сезон 1 серии 1-13 из 13] Кравец Admin 5.07 GB
Action, экшены Ghostship Aftermath (2014) (MAG Studios) (ENG) [L] Buyan 6.86 GB

_________________


Последний раз редактировалось: Admin (2017-04-12 09:22), всего редактировалось 1 раз
[Профиль] [ЛС]

BiOS

Стаж: 3 года 3 месяца

Сообщений: 1999

Откуда: Raccoon City


Пост 12-Апр-2017 06:35 (спустя 2 дня 19 часов)

[Цитировать]

Кто видел? Как фильм? 

_________________
[Профиль] [ЛС]

Admin ®

Стаж: 3 года 3 месяца

Сообщений: 5214

Откуда: Скачать торрент


Пост 12-Апр-2017 09:22 (спустя 2 часа 46 минут)

[Цитировать]

Кто видел? Как фильм?
фильм по реальным событиям когда горец убил авиадиспетчера может помнишь
Отзывы и рецензии зрителей https://www.kinopoisk.ru/film/954066/


_________________
[Профиль] [ЛС]
Показать сообщения:    
Ответить на тему

Текущее время: Сегодня 15:54

Часовой пояс: GMT + 4



Вы не можете начинать темы
Вы не можете отвечать на сообщения
Вы не можете редактировать свои сообщения
Вы не можете удалять свои сообщения
Вы не можете голосовать в опросах
Вы не можете прикреплять файлы к сообщениям
Вы можете скачивать файлы