Постфактум / Последствия / После / The After (2014) WEBRip (сезон 1, серии 1-1 из 1) NewStudio скачать торрент

Ответить на тему

Статистика раздачи [Обновить пиров]
Размер:  1.65 GB   |    Зарегистрирован:  4 месяца 7 дней   |    Скачан:  1 раз

Полного источника не было: 3 месяца 11 дней

 
   
 
 
 
Автор Сообщение

BiOS ®

Стаж: 3 года 3 месяца

Сообщений: 1999

Откуда: Raccoon City


Пост 10-Апр-2017 02:12

[Цитировать]

Постфактум / Последствия / После / The After - Производство: США
Жанр: Триллер, фантастика
Режиссер: Крис Картер
Актеры: Элдис Ходж, Эндрю Ховард, Ариэль Кеббел, Джейми Кеннеди, Шэрон Лоуренс, Сэм Литтлфилд, Луиз Моно, Джессика Ортиз, Адриан Пасдар, Джейсон Льюис и др.
Описание:
На земле случилась жуткая катастрофа. Ее масштабы настолько катастрофические, что последствия угрожают существованию всего человечества. Власти умалчивают о случившемся, но группа из восьми незнакомцев, желающих знать правду, объединяются и берет на себя миссию выяснить, что же происходит и каким образом выжить.
Дата мировой премьеры: 6 февраля 2014
Продолжительность: ~ 00:55:00 серия
Качество видео: WEBRip
Перевод: Профессиональный (многоголосый, закадровый) - NewStudio (ненормативная лексика)
Видео: MKV/H.264, 1280x720 (16:9), ~ 3250 kbps
Аудио Rus: AC3, 48.0 KHz, 6 ch, 384 kbps
Аудио Eng: AC3, 48.0 KHz, 6 ch, 640 kbps

MediaInfo

Код:
Общее
Формат                                   : Matroska
Версия формата                           : Version 2
Размер файла                             : 1,65 Гбайт
Продолжительность                        : 54 м. 26 с.
Общий поток                              : 4347 Кбит/сек
Дата кодирования                         : UTC 2014-02-18 19:11:09
Программа кодирования                    : mkvmerge v2.9.9 ('Tutu') built on Nov 25 2009 21:13:32
Библиотека кодирования                   : libebml v0.7.9 + libmatroska v0.8.1
Видео
Идентификатор                            : 1
Формат                                   : AVC
Формат/Информация                        : Advanced Video Codec
Профиль формата                          : High@L4.1
Параметр CABAC формата                   : Да
Параметр ReFrames формата                : 9 кадров
Идентификатор кодека                     : V_MPEG4/ISO/AVC
Продолжительность                        : 54 м. 26 с.
Битрейт                                  : 3236 Кбит/сек
Ширина                                   : 1280 пикселей
Высота                                   : 720 пикселей
Соотношение сторон                       : 16:9
Режим частоты кадров                     : Постоянный
Частота кадров                           : 23,976 (24000/1001) кадра/сек
Цветовое пространство                    : YUV
Субдискретизация насыщенности            : 4:2:0
Битовая глубина                          : 8 бит
Тип развёртки                            : Прогрессивная
Бит/(Пиксели*Кадры)                      : 0.146
Размер потока                            : 1,23 Гбайт (74%)
Библиотека кодирования                   : x264 core 140 r2377 1ca7bb9
Настройки программы                      : cabac=1 / ref=9 / deblock=1:-3:-2 / analyse=0x3:0x133 / me=umh / subme=10 / psy=1 / psy_rd=0.95:0.00 / mixed_ref=1 / me_range=48 / chroma_me=1 / trellis=2 / 8x8dct=1 / cqm=0 / deadzone=21,11 / fast_pskip=0 / chroma_qp_offset=-2 / threads=12 / lookahead_threads=2 / sliced_threads=0 / nr=0 / decimate=0 / interlaced=0 / bluray_compat=0 / constrained_intra=0 / bframes=7 / b_pyramid=2 / b_adapt=2 / b_bias=0 / direct=3 / weightb=1 / open_gop=0 / weightp=2 / keyint=250 / keyint_min=24 / scenecut=40 / intra_refresh=0 / rc_lookahead=250 / rc=crf / mbtree=1 / crf=17.0 / qcomp=0.65 / qpmin=0 / qpmax=69 / qpstep=4 / vbv_maxrate=38000 / vbv_bufsize=30000 / crf_max=0.0 / nal_hrd=none / filler=0 / ip_ratio=1.40 / aq=1:0.80
Язык                                     : English
Default                                  : Нет
Forced                                   : Нет
Аудио #1
Идентификатор                            : 2
Формат                                   : AC-3
Формат/Информация                        : Audio Coding 3
Параметр Endianness формата              : Big
Идентификатор кодека                     : A_AC3
Продолжительность                        : 54 м. 26 с.
Вид битрейта                             : Постоянный
Битрейт                                  : 384 Кбит/сек
Каналы                                   : 6 каналов
Расположение каналов                     : Front: L C R, Side: L R, LFE
Частота                                  : 48,0 КГц
Частота кадров                           : 31,250 кадров/сек (1536 spf)
Битовая глубина                          : 16 бит
Метод сжатия                             : С потерями
Размер потока                            : 150 Мбайт (9%)
Язык                                     : Russian
ServiceKind/String                       : Complete Main
Default                                  : Да
Forced                                   : Да
Аудио #2
Идентификатор                            : 3
Формат                                   : AC-3
Формат/Информация                        : Audio Coding 3
Параметр Endianness формата              : Big
Идентификатор кодека                     : A_AC3
Продолжительность                        : 54 м. 26 с.
Вид битрейта                             : Постоянный
Битрейт                                  : 640 Кбит/сек
Каналы                                   : 6 каналов
Расположение каналов                     : Front: L C R, Side: L R, LFE
Частота                                  : 48,0 КГц
Частота кадров                           : 31,250 кадров/сек (1536 spf)
Битовая глубина                          : 16 бит
Метод сжатия                             : С потерями
Задержка видео                           : 20 мс.
Размер потока                            : 249 Мбайт (15%)
Язык                                     : English
ServiceKind/String                       : Complete Main
Default                                  : Нет
Forced                                   : Нет
-Скриншоты:


Смотреть онлайн


[trackeroc.ru].19685.torrent 
Торрент: Зарегистрирован   [ 2017-04-10 02:12 ]

Скачать торрент

18 KB

Статус: проверено
Скачан: 17 раз
Размер: 1.65 GB
1/1
 

Admin (10-апр-17)
Похожие торренты
Форум Тема Автор Размер
Зарубежные сериалы Жизнь после /Последствия / Aftermath (2016) HDTVRip [H.264/720p-LQ] (сезон 1, серии 1-13 из 13) Jaskier BiOS 12.57 GB
Драмы Последствия / Aftermath (2017) WEB-DLRip Admin 1.37 GB
Зарубежные сериалы Жизнь после / Последствия / Aftermath (2016) WEB-DLRip [сезон 1 серии 1-13 из 13] Кравец Admin 5.07 GB

_________________


Последний раз редактировалось: BiOS (2017-04-10 02:35), всего редактировалось 3 раз(а)
[Профиль] [ЛС]

BiOS ®

Стаж: 3 года 3 месяца

Сообщений: 1999

Откуда: Raccoon City


Пост 10-Апр-2017 02:19 (спустя 7 минут)

[Цитировать]

Посмотрел сей шедевр от Криса Картера............блин и где продолжение????? 

_________________
[Профиль] [ЛС]

Admin

Стаж: 3 года 3 месяца

Сообщений: 5214

Откуда: Скачать торрент


Пост 10-Апр-2017 11:43 (спустя 9 часов)

[Цитировать]

Пилот сериала представляет собой достаточно интересную затравку как для привлечения публики, так и для привлечения средств к созданию полноценного сезона и уже посмотрев пилот могу сказать одно. Хочется верить, что проект получит финансовую и зрительскую поддержку. Тем самым, развившись до полноценного сезона. https://www.kinopoisk.ru/film/818780/ 

_________________
[Профиль] [ЛС]
Показать сообщения:    
Ответить на тему

Текущее время: Сегодня 15:50

Часовой пояс: GMT + 4



Вы не можете начинать темы
Вы не можете отвечать на сообщения
Вы не можете редактировать свои сообщения
Вы не можете удалять свои сообщения
Вы не можете голосовать в опросах
Вы не можете прикреплять файлы к сообщениям
Вы можете скачивать файлы