Притворщик / The Pretender / Сезон: 1-4 (4) / Серии: 1-84 из 84 (+2 полнометражных фильма) [1996–2001] [BDRip]

Ответить на тему

Статистика раздачи [Обновить пиров]
Размер:  36.1 GB   |    Зарегистрирован:  1 год 1 месяц   |    Скачан:  2 раза

Полного источника не было: 9 месяцев 17 дней

 
 
 
 
Автор Сообщение

BiOS ®

Стаж: 2 года 7 месяцев

Сообщений: 1730

Откуда: Raccoon City


Пост 01-Ноя-2015 14:00

[Цитировать]

Притворщик / The Pretender
«He'll fight for justice anytime, anywhere. And as anyone»
- Производство: США
Жанр: фантастика, триллер, драма, детектив
Режиссер: Джеймс Уитмор-мл., Джим Чарлестон, Джо Наполитано, Фредерик Кинг Келлер, Верн Гиллам, Чак Бауман, Майкл Лэнж, Стивен Лонг Митчел и Скот Лаутанен
Актеры: Майкл Т. Уайсс, Андреа Паркер, Патрик Буше, Джон Гриз, Райан Мерриман, Ричард Маркус, Alex Wexo, Джеймс Дентон, Сэм Айерс, Харви Преснелл и др.
Описание:
Среди нас есть Притворщики. Гении, способные стать любым, кем они захотят. В 1963 году корпорация под названием Центр изолировала юного Притворщика по имени Джарод и использовала его неординарные способности в своих целях. Но однажды Притворщик сбежал…
Релиз от: LostFilm
Продолжительность: ~ 00:43:00 серия
Качество видео: DVDRip
Перевод: Одноголосый закадровый, профессиональный - Студия "Кравец" (1 сезон)
Двухголосый закадровый, профессиональный - Sci-Fi Russia (2, 3, 4 сезон)
Многоголосый закадровый, профессиональный - Студия "Кравец" (фильмы)
Видео: Xvid, 640x480/640x368, ~980 kbps
Аудио 1 Rus: MP3, 48,0 kHz, 2 ch, 192 kbps/128 kbps
Аудио 2 Eng: MP3, 48,0 kHz, 2 ch, 192 kbps, VBR (2, 3, 4 сезон)

Притворщик: 2001 / The Pretender 2001

Притворщик: 2001 / The Pretender 2001
«He is a master of disguise. She is a master of the hunt. Let the chase begin»
- Производство: США
Жанр: боевик, триллер, криминал, детектив
Режиссер: Фредерик Кинг Келлер
Актеры: Майкл Т. Уайсс, Андреа Паркер, Патрик Бошо, Джон Грайз, Харви Преснелл, Ричард Маркус, Джеймс Дентон, Тайлер Кристофер, Питер Аутербридж, Синтия Дэйл и др.
Описание:
Притворщик 2001 (The Pretender 2001) — первый из двух телефильмов, снятых компанией TNT. Фильм основан на популярном сериале корпорации NBC — «Притворщик» («The pretender»). Действие начинается со взрыва на станции метрополитена, которым завершилась последняя серия 4 сезона. На протяжении фильма Джарод столкнется с призраками из своего прошлого, а мисс Паркер лучше узнает сводного брата Итена и сделает невероятные открытия относительно собственного происхождения и прошлого своей матери. Становятся известны некоторые подробности бегства Джарода из Центра. Раскрываются старые тайны и появляются новые. Джарод перевоплощается в агента АНБ и пытается вычислить неуловимого убийцу, известного под кодовым именем — Хамелеон, ведущего с ним собственную игру, ставка в которой — человеческая жизнь.
Релиз от: LostFilm
Продолжительность: 01:30:40
Качество видео: DVDRip
Перевод: ММногоголосый закадровый, профессиональный - Студия "Кравец"
Видео: Xvid, 720x544 (4:3), ~1650 kbps
Аудио: MP3, 48.0 kHz, 2 ch, 128 kbps

Mediainfo

Код:
General
Complete name                            : E:\Притворщик\Pretender.2001.rus.LostFilm.avi
Format                                   : AVI
Format/Info                              : Audio Video Interleave
File size                                : 1.13 GiB
Duration                                 : 1h 30mn
Overall bit rate                         : 1 790 Kbps
Writing application                      : Nandub v1.0rc2
Writing library                          : Nandub build 1853/release
Video
ID                                       : 0
Format                                   : MPEG-4 Visual
Format profile                           : Advanced Simple@L5
Format settings, BVOP                    : No
Format settings, QPel                    : No
Format settings, GMC                     : No warppoints
Format settings, Matrix                  : Custom
Codec ID                                 : XVID
Codec ID/Hint                            : XviD
Duration                                 : 1h 30mn
Bit rate                                 : 1 650 Kbps
Width                                    : 720 pixels
Height                                   : 544 pixels
Display aspect ratio                     : 4:3
Frame rate                               : 23.976 fps
Color space                              : YUV
Chroma subsampling                       : 4:2:0
Bit depth                                : 8 bits
Scan type                                : Progressive
Compression mode                         : Lossy
Bits/(Pixel*Frame)                       : 0.176
Stream size                              : 1.04 GiB (92%)
Writing library                          : XviD 1.2.0.dev47 (UTC 2006-11-01)
Audio
ID                                       : 1
Format                                   : MPEG Audio
Format version                           : Version 1
Format profile                           : Layer 3
Mode                                     : Joint stereo
Mode extension                           : MS Stereo
Codec ID                                 : 55
Codec ID/Hint                            : MP3
Duration                                 : 1h 30mn
Bit rate mode                            : Constant
Bit rate                                 : 128 Kbps
Channel(s)                               : 2 channels
Sampling rate                            : 48.0 KHz
Compression mode                         : Lossy
Stream size                              : 83.0 MiB (7%)
Alignment                                : Aligned on interleaves
Interleave, duration                     : 24 ms (0.58 video frame)
Interleave, preload duration             : 480 ms
-Скриншоты:

Притворщик: Остров призраков / The Pretender: Island of the Haunted

Притворщик: Остров призраков / The Pretender: Island of the Haunted- Производство: США
Жанр: боевик, триллер, криминал, детектив
Режиссер: Фредерик Кинг Келлер
Актеры: Майкл Т. Уайсс, Андреа Паркер, Патрик Бошо, Джон Грайз, Харви Преснелл, Ричард Маркус, Джеймс Дентон, Тайлер Кристофер, Питер Аутербридж, Синтия Дэйл и др.
Описание:
Действие с участием мисс Паркер и Джарода будет развиваться на удивительном острове в Шотландии. Фильм открывает тайны прошлого Джарода и мисс Паркер, также как и зловещие тени истории создания Центра. Джарод ищет свою мать, а мисс Паркер, во время охоты на Джарода, обнаруживает удивидительные и ужасающие подробности истории собственной семьи. В ходе поисков они обнаруживают мистические свитки, которые разыскиваются Центром. Это главным образом интрига вокруг доверия. Герои также пытаются понять, почему Джарод так важен для его преследователей.
Релиз от: LostFilm
Продолжительность: 01:31:18
Качество видео: DVDRip
Перевод: Многоголосый закадровый
Видео: Xvid, 720x400,(16:9), ~1950 kbps
Аудио: MP3, 48.0 kHz, 2 ch, 128 kbps

Mediainfo

Код:
General
Complete name                            : E:\Притворщик\Pretender.Island.of.the.Haunted.rus.LostFilm.avi
Format                                   : AVI
Format/Info                              : Audio Video Interleave
File size                                : 1.33 GiB
Duration                                 : 1h 31mn
Overall bit rate                         : 2 091 Kbps
Writing application                      : Nandub v1.0rc2
Writing library                          : Nandub build 1853/release
Video
ID                                       : 0
Format                                   : MPEG-4 Visual
Format profile                           : Advanced Simple@L5
Format settings, BVOP                    : No
Format settings, QPel                    : No
Format settings, GMC                     : No warppoints
Format settings, Matrix                  : Custom
Codec ID                                 : XVID
Codec ID/Hint                            : XviD
Duration                                 : 1h 31mn
Bit rate                                 : 1 950 Kbps
Width                                    : 720 pixels
Height                                   : 400 pixels
Display aspect ratio                     : 16:9
Frame rate                               : 23.976 fps
Color space                              : YUV
Chroma subsampling                       : 4:2:0
Bit depth                                : 8 bits
Scan type                                : Progressive
Compression mode                         : Lossy
Bits/(Pixel*Frame)                       : 0.282
Stream size                              : 1.24 GiB (93%)
Writing library                          : XviD 1.2.0.dev47 (UTC 2006-11-01)
Audio
ID                                       : 1
Format                                   : MPEG Audio
Format version                           : Version 1
Format profile                           : Layer 3
Mode                                     : Joint stereo
Mode extension                           : MS Stereo
Codec ID                                 : 55
Codec ID/Hint                            : MP3
Duration                                 : 1h 31mn
Bit rate mode                            : Constant
Bit rate                                 : 128 Kbps
Channel(s)                               : 2 channels
Sampling rate                            : 48.0 KHz
Compression mode                         : Lossy
Stream size                              : 83.6 MiB (6%)
Alignment                                : Aligned on interleaves
Interleave, duration                     : 24 ms (0.58 video frame)
Interleave, preload duration             : 480 ms
-Скриншоты:

Mediainfo посезонно

Сезон 1

Код:
General
Complete name                            : E:\Притворщик\Сезон 1\Pretender.s01.e02.rus.lostfilm.avi
Format                                   : AVI
Format/Info                              : Audio Video Interleave
File size                                : 396 MiB
Duration                                 : 46mn 14s
Overall bit rate                         : 1 198 Kbps
Writing application                      : Nandub v1.0rc2
Writing library                          : Nandub build 1853/release
Video
ID                                       : 0
Format                                   : MPEG-4 Visual
Format profile                           : Advanced Simple@L5
Format settings, BVOP                    : 1
Format settings, QPel                    : No
Format settings, GMC                     : No warppoints
Format settings, Matrix                  : Custom
Codec ID                                 : XVID
Codec ID/Hint                            : XviD
Duration                                 : 46mn 14s
Bit rate                                 : 993 Kbps
Width                                    : 640 pixels
Height                                   : 480 pixels
Display aspect ratio                     : 4:3
Frame rate                               : 23.976 fps
Color space                              : YUV
Chroma subsampling                       : 4:2:0
Bit depth                                : 8 bits
Scan type                                : Progressive
Compression mode                         : Lossy
Bits/(Pixel*Frame)                       : 0.135
Stream size                              : 329 MiB (83%)
Writing library                          : XviD 1.2.0.dev47 (UTC 2006-11-01)
Audio
ID                                       : 1
Format                                   : MPEG Audio
Format version                           : Version 1
Format profile                           : Layer 3
Mode                                     : Joint stereo
Codec ID                                 : 55
Codec ID/Hint                            : MP3
Duration                                 : 46mn 14s
Bit rate mode                            : Constant
Bit rate                                 : 192 Kbps
Channel(s)                               : 2 channels
Sampling rate                            : 48.0 KHz
Compression mode                         : Lossy
Stream size                              : 63.5 MiB (16%)
Alignment                                : Aligned on interleaves
Interleave, duration                     : 24 ms (0.58 video frame)
Interleave, preload duration             : 480 ms

Сезон 2

Код:
General
Complete name                            : E:\Притворщик\Сезон 2\Pretender.s02e02.LostFilm.avi
Format                                   : AVI
Format/Info                              : Audio Video Interleave
File size                                : 413 MiB
Duration                                 : 46mn 2s
Overall bit rate mode                    : Variable
Overall bit rate                         : 1 255 Kbps
Writing application                      : VirtualDubMod 1.5.10.2 (build 2540/release)
Writing library                          : VirtualDubMod build 2540/release
Video
ID                                       : 0
Format                                   : MPEG-4 Visual
Format profile                           : Advanced Simple@L5
Format settings, BVOP                    : 1
Format settings, QPel                    : No
Format settings, GMC                     : No warppoints
Format settings, Matrix                  : Custom
Codec ID                                 : XVID
Codec ID/Hint                            : XviD
Duration                                 : 46mn 2s
Bit rate                                 : 932 Kbps
Width                                    : 640 pixels
Height                                   : 368 pixels
Display aspect ratio                     : 1.739
Frame rate                               : 23.976 fps
Color space                              : YUV
Chroma subsampling                       : 4:2:0
Bit depth                                : 8 bits
Scan type                                : Progressive
Compression mode                         : Lossy
Bits/(Pixel*Frame)                       : 0.165
Stream size                              : 307 MiB (74%)
Writing library                          : XviD 1.2.0.dev47 (UTC 2006-11-01)
Audio #1
ID                                       : 1
Format                                   : MPEG Audio
Format version                           : Version 1
Format profile                           : Layer 3
Mode                                     : Joint stereo
Mode extension                           : MS Stereo
Codec ID                                 : 55
Codec ID/Hint                            : MP3
Duration                                 : 46mn 2s
Bit rate mode                            : Constant
Bit rate                                 : 128 Kbps
Channel(s)                               : 2 channels
Sampling rate                            : 48.0 KHz
Compression mode                         : Lossy
Stream size                              : 42.2 MiB (10%)
Alignment                                : Aligned on interleaves
Interleave, duration                     : 42 ms (1.00 video frame)
Interleave, preload duration             : 504 ms
Language                                 : English
Audio #2
ID                                       : 2
Format                                   : MPEG Audio
Format version                           : Version 1
Format profile                           : Layer 3
Mode                                     : Joint stereo
Codec ID                                 : 55
Codec ID/Hint                            : MP3
Duration                                 : 46mn 2s
Bit rate mode                            : Variable
Bit rate                                 : 178 Kbps
Nominal bit rate                         : 192 Kbps
Channel(s)                               : 2 channels
Sampling rate                            : 48.0 KHz
Compression mode                         : Lossy
Stream size                              : 58.6 MiB (14%)
Alignment                                : Aligned on interleaves
Interleave, duration                     : 24 ms (0.58 video frame)
Interleave, preload duration             : 504 ms
Writing library                          : LAME3.97
Encoding settings                        : -m j -V 4 -q 2 -lowpass 18.6 --abr 192

Сезон 3

Код:
General
Complete name                            : E:\Притворщик\Сезон 3\Pretender.s03e01.new.rus.LostFilm.avi
Format                                   : AVI
Format/Info                              : Audio Video Interleave
File size                                : 412 MiB
Duration                                 : 44mn 12s
Overall bit rate mode                    : Variable
Overall bit rate                         : 1 301 Kbps
Writing application                      : VirtualDubMod 1.5.10.2 (build 2542/release)
Writing library                          : VirtualDubMod build 2542/release
Video
ID                                       : 0
Format                                   : MPEG-4 Visual
Format profile                           : Advanced Simple@L5
Format settings, BVOP                    : 1
Format settings, QPel                    : No
Format settings, GMC                     : No warppoints
Format settings, Matrix                  : Custom
Codec ID                                 : XVID
Codec ID/Hint                            : XviD
Duration                                 : 44mn 12s
Bit rate                                 : 980 Kbps
Width                                    : 640 pixels
Height                                   : 368 pixels
Display aspect ratio                     : 1.739
Frame rate                               : 23.976 fps
Color space                              : YUV
Chroma subsampling                       : 4:2:0
Bit depth                                : 8 bits
Scan type                                : Progressive
Compression mode                         : Lossy
Bits/(Pixel*Frame)                       : 0.174
Stream size                              : 310 MiB (75%)
Writing library                          : XviD 1.2.0.dev47 (UTC 2006-11-01)
Audio #1
ID                                       : 1
Format                                   : MPEG Audio
Format version                           : Version 1
Format profile                           : Layer 3
Mode                                     : Joint stereo
Mode extension                           : MS Stereo
Codec ID                                 : 55
Codec ID/Hint                            : MP3
Duration                                 : 44mn 12s
Bit rate mode                            : Constant
Bit rate                                 : 128 Kbps
Channel(s)                               : 2 channels
Sampling rate                            : 48.0 KHz
Compression mode                         : Lossy
Stream size                              : 40.5 MiB (10%)
Alignment                                : Aligned on interleaves
Interleave, duration                     : 42 ms (1.00 video frame)
Interleave, preload duration             : 504 ms
Language                                 : English
Audio #2
ID                                       : 2
Format                                   : MPEG Audio
Format version                           : Version 1
Format profile                           : Layer 3
Mode                                     : Joint stereo
Mode extension                           : MS Stereo
Codec ID                                 : 55
Codec ID/Hint                            : MP3
Duration                                 : 44mn 12s
Bit rate mode                            : Variable
Bit rate                                 : 176 Kbps
Nominal bit rate                         : 192 Kbps
Channel(s)                               : 2 channels
Sampling rate                            : 48.0 KHz
Compression mode                         : Lossy
Stream size                              : 55.6 MiB (14%)
Alignment                                : Aligned on interleaves
Interleave, duration                     : 24 ms (0.58 video frame)
Interleave, preload duration             : 104 ms
Writing library                          : LAME3.97
Encoding settings                        : -m j -V 4 -q 2 -lowpass 18.6 --abr 192

Сезон 4

Код:
General
Complete name                            : E:\Притворщик\Сезон 4\Pretender.s04e01.new.rus.LostFilm.avi
Format                                   : AVI
Format/Info                              : Audio Video Interleave
File size                                : 411 MiB
Duration                                 : 43mn 48s
Overall bit rate mode                    : Variable
Overall bit rate                         : 1 312 Kbps
Writing application                      : VirtualDubMod 1.5.10.2 (build 2542/release)
Writing library                          : VirtualDubMod build 2542/release
Video
ID                                       : 0
Format                                   : MPEG-4 Visual
Format profile                           : Advanced Simple@L5
Format settings, BVOP                    : 1
Format settings, QPel                    : No
Format settings, GMC                     : No warppoints
Format settings, Matrix                  : Custom
Codec ID                                 : XVID
Codec ID/Hint                            : XviD
Duration                                 : 43mn 48s
Bit rate                                 : 988 Kbps
Width                                    : 640 pixels
Height                                   : 368 pixels
Display aspect ratio                     : 1.739
Frame rate                               : 23.976 fps
Color space                              : YUV
Chroma subsampling                       : 4:2:0
Bit depth                                : 8 bits
Scan type                                : Progressive
Compression mode                         : Lossy
Bits/(Pixel*Frame)                       : 0.175
Stream size                              : 310 MiB (75%)
Writing library                          : XviD 1.2.0.dev47 (UTC 2006-11-01)
Audio #1
ID                                       : 1
Format                                   : MPEG Audio
Format version                           : Version 1
Format profile                           : Layer 3
Mode                                     : Joint stereo
Mode extension                           : MS Stereo
Codec ID                                 : 55
Codec ID/Hint                            : MP3
Duration                                 : 43mn 48s
Bit rate mode                            : Constant
Bit rate                                 : 128 Kbps
Channel(s)                               : 2 channels
Sampling rate                            : 48.0 KHz
Compression mode                         : Lossy
Stream size                              : 40.1 MiB (10%)
Alignment                                : Aligned on interleaves
Interleave, duration                     : 42 ms (1.00 video frame)
Interleave, preload duration             : 504 ms
Language                                 : English
Audio #2
ID                                       : 2
Format                                   : MPEG Audio
Format version                           : Version 1
Format profile                           : Layer 3
Mode                                     : Joint stereo
Mode extension                           : MS Stereo
Codec ID                                 : 55
Codec ID/Hint                            : MP3
Duration                                 : 43mn 48s
Bit rate mode                            : Variable
Bit rate                                 : 179 Kbps
Nominal bit rate                         : 192 Kbps
Channel(s)                               : 2 channels
Sampling rate                            : 48.0 KHz
Compression mode                         : Lossy
Stream size                              : 55.9 MiB (14%)
Alignment                                : Aligned on interleaves
Interleave, duration                     : 24 ms (0.58 video frame)
Interleave, preload duration             : 103 ms
Writing library                          : LAME3.97
Encoding settings                        : -m j -V 4 -q 2 -lowpass 18.6 --abr 192

Знаете ли вы, что...

1. Во второй серии 1 сезона во время прохождения симуляции, Джарод находит решение спасения экипажа космического корабля Аполлона 13, используя тягу луны, чтобы обогнуть ее и направить корабль в обратном направлении. Сама эта стратегия показана в фильме «Аполлон 13» (1995).
2. В третьей серии первого сезона, глядя на стереографии, Джарод говорит, что там изображены пингвин и сфинкс, пингвин верхом на верблюде. Если присмотреться, то можно увидеть, что на первой стереографии изображены динозавры, на второй — спорткар.
3. История, рассказанная в 19 серии третьего сезона, о «братьях» Джошуа и похищенном мальчике Бенксе, имеет продолжение — оно снято в сериале «Профайлер» (1996-2000), и там Джарод появляется в одном эпизоде.
-Скриншоты:


Смотреть онлайн

[trackeroc.ru].9449.torrent 
Торрент: Зарегистрирован   [ 2015-11-01 14:00 ]

Скачать торрент

99 KB

Статус: проверено
Скачан: 35 раз
Размер: 36.1 GB
 

Admin (01-ноя-15)

_________________
[Профиль] [ЛС]
Показать сообщения:    
Ответить на тему

Текущее время: Сегодня 21:34

Часовой пояс: GMT + 4



Вы не можете начинать темы
Вы не можете отвечать на сообщения
Вы не можете редактировать свои сообщения
Вы не можете удалять свои сообщения
Вы не можете голосовать в опросах
Вы не можете прикреплять файлы к сообщениям
Вы можете скачивать файлы