Проект 12: Бункер / Project 12: The Bunker [2016, DVDRip]

Ответить на тему

Статистика раздачи [Обновить пиров]
Скачали
Размер:  1.36 GB   |    Зарегистрирован:  9 месяцев 13 дней   |    Скачан:  4 раза

Полного источника не было: 2 месяца 12 дней

 
 
 
 
Автор Сообщение

Admin ®

Стаж: 7 месяцев 13 дней

Сообщений: 4454

Откуда: trackeroc.ru


Пост 23-Фев-2016 13:13

[Цитировать]

Проект 12: Бункер / Project 12: The Bunker
Страна: Испания
Жанр: фантастика, боевик, триллер, приключения
Год выпуска: 2016
Продолжительность: 01:37:08
Перевод: Одноголосый закадровый Васька Куролесов по субтитрам Энигма
Cубтитры: нет
Оригинальная аудиодорожка: нет
Режиссер: Джейми Фалеро / Jaime Falero
В ролях: Джеймс Космо, Хоакин Санчез, Наташа Алам, Эрик Робертс, Тимоти Гиббс, Тони Корвильо, Джеймс Коннер Фергюсон, Хосе Луис Де Мадарьяга
Описание: В начале семидесятых годов в самый разгар Холодной войны Советский Союз вёл инновационные разработки разрушительного оружия, способного в один миг прекратить войну и изменить ход человеческой истории. Для работ над Проектом 12 были привлечены лучшие умы Союза, трудившиеся сутки напролёт над непобедимой машиной - армией солдат с невероятными способностями, которых не берут ни пули, ни время. В итоге руководство сочло Проект 12 слишком опасным и закрыло его, приказав убить всех участвовавших в разработке учёных, чтобы сохранить секрет от мира. Троим удалось сбежать из под огня и скрыться, а Проект 12 был захоронен в особо охраняемом подземном бункере, заброшенном в пустыне много лет назад.
Семпл
Качество видео: DVDRip
Формат видео: AVI
Видео: XviD, 1806 Кбит/с, 720x304, 23.976 fps
Аудио: AC-3, 2 ch, 192 Кбит/с, 48.0 KHz
Релиз:

MediaInfo

General
Complete name : G:\Project 12 The Bunker_KypoJIecoB.avi
Format : AVI
Format/Info : Audio Video Interleave
File size : 1.36 GiB
Duration : 1h 37mn
Overall bit rate : 2 007 Kbps
Video
ID : 0
Format : MPEG-4 Visual
Format profile : Advanced Simple@L5
Format settings, BVOP : 2
Format settings, QPel : No
Format settings, GMC : No warppoints
Format settings, Matrix : Default (H.263)
Codec ID : XVID
Codec ID/Hint : XviD
Duration : 1h 37mn
Bit rate : 1 806 Kbps
Width : 720 pixels
Height : 304 pixels
Display aspect ratio : 2.35:1
Frame rate : 23.976 fps
Color space : YUV
Chroma subsampling : 4:2:0
Bit depth : 8 bits
Scan type : Progressive
Compression mode : Lossy
Bits/(Pixel*Frame) : 0.344
Stream size : 1.23 GiB (90%)
Writing library : XviD 67
Audio
ID : 1
Format : AC-3
Format/Info : Audio Coding 3
Mode extension : CM (complete main)
Format settings, Endianness : Big
Codec ID : 2000
Duration : 1h 37mn
Bit rate mode : Constant
Bit rate : 192 Kbps
Channel(s) : 2 channels
Channel positions : Front: L R
Sampling rate : 48.0 KHz
Compression mode : Lossy
Stream size : 133 MiB (10%)
Alignment : Split accross interleaves
Interleave, duration : 42 ms (1.00 video frame)
Interleave, preload duratio : 500 ms

Скриншот c названием фильма

Скриншоты



Смотреть онлайн

[trackerock.ru].11719.torrent 
Торрент: Зарегистрирован   [ 2016-02-23 13:13 ]

Скачать торрент

55 KB

Статус: проверено
Скачан: 20 раз
Размер: 1.36 GB
 

Похожие торренты
Форум Тема Автор Размер
Документальные Трейлеры Проект: Динозавр / T.Rex: Autopsy (2015) HDTV [H.264/1080i] BiOS 7.68 GB
Фантастика Фэнтези Проект 12: Бункер / Project 12: The Bunker (2016) DVDRip [VO] Admin 1.24 GB
Зарубежные Яблочное Зёрнышко: Проект Альфа / Appleseed Alpha (2014) BDRip (фильм третий) BiOS 7.39 GB
Shooter шутеры стрелялки FEAR: Проект «Персей» / F.E.A.R Perseus Mandate (RUS) Admin 3.92 GB

_________________
[Профиль] [ЛС]
Показать сообщения:    
Ответить на тему

Текущее время: Сегодня 07:57

Часовой пояс: GMT + 4



Вы не можете начинать темы
Вы не можете отвечать на сообщения
Вы не можете редактировать свои сообщения
Вы не можете удалять свои сообщения
Вы не можете голосовать в опросах
Вы не можете прикреплять файлы к сообщениям
Вы можете скачивать файлы