Проект 12: Бункер / Project 12: The Bunker (2016) DVDRip [VO]

Ответить на тему

Статистика раздачи [Обновить пиров]
Размер:  1.24 GB   |    Зарегистрирован:  10 месяцев 3 дня   |    Скачан:  3 раза
DL-List: Нет

Полного источника не было: 1 месяц 27 дней

 
 
 
 
Автор Сообщение

Admin ®

Стаж: 7 месяцев 14 дней

Сообщений: 4459

Откуда: trackeroc.ru


Пост 06-Фев-2016 19:13

[Цитировать]

Проект 12: Бункер / Project 12: The Bunker - Производство: Испания
Жанр: Фантастика, Боевик, Триллер, Приключения
Режиссер: Джейми Фалеро
Продюсер: Хоакин Санчез, Джейми Фалеро
Актеры: Джеймс Космо, Хоакин Санчез, Наташа Алам, Эрик Робертс, Тимоти Гиббс, Тони Корвильо, Джеймс Коннер Фергюсон, Хосе Луис Де Мадарьяга
Описание:
В начале семидесятых годов в самый разгар Холодной войны Советский Союз вёл инновационные разработки разрушительного оружия, способного в один миг прекратить войну и изменить ход человеческой истории. Для работ над Проектом 12 были привлечены лучшие умы Союза, трудившиеся сутки напролёт над непобедимой машиной - армией солдат с невероятными способностями, которых не берут ни пули, ни время. В итоге руководство сочло Проект 12 слишком опасным и закрыло его, приказав убить всех участвовавших в разработке учёных, чтобы сохранить секрет от мира. Троим удалось сбежать из под огня и скрыться, а Проект 12 был захоронен в особо охраняемом подземном бункере, заброшенном в пустыне много лет назад.
Дата мировой премьеры: 8 января 2016
Продолжительность: 01:37:08
Качество видео: DVDRip
Перевод: Одноголосый закадровый, любительский
Озвучка / Автор перевода: datynet / Куценко
Язык субтитров: Отсутствуют
Видео: Xvid, 720x304 (2.35:1), 23.976 fps, ~1620 Kbps (0.309 bit/pixel)
Аудио: AC-3, 48.0 KHz, 2 ch, 192 Kbps, CBR

Mediainfo:

Код:
General
Complete name                  : C:\Bynker.12.2016.DVDRip.avi
Format                         : AVI
Format/Info                    : Audio Video Interleave
File size                      : 1.24 GiB
Duration                       : 1h 37mn
Overall bit rate               : 1 821 Kbps
Writing application            : VirtualDubMod 1.5.10.2 (build 2542/release)
Writing library                : VirtualDubMod build 2542/release
Video
ID                             : 0
Format                         : MPEG-4 Visual
Format profile                 : Advanced Simple@L5
Format settings, BVOP          : Yes
Format settings, QPel          : No
Format settings, GMC           : No warppoints
Format settings, Matrix        : Default (MPEG)
Codec ID                       : XVID
Codec ID/Hint                  : XviD
Duration                       : 1h 37mn
Bit rate                       : 1 620 Kbps
Width                          : 720 pixels
Height                         : 304 pixels
Display aspect ratio           : 2.35:1
Frame rate                     : 23.976 fps
Color space                    : YUV
Chroma subsampling             : 4:2:0
Bit depth                      : 8 bits
Scan type                      : Progressive
Compression mode               : Lossy
Bits/(Pixel*Frame)             : 0.309
Stream size                    : 1.10 GiB (89%)
Writing library                : XviD 1.2.1 (UTC 2008-12-04)
Audio
ID                             : 1
Format                         : AC-3
Format/Info                    : Audio Coding 3
Mode extension                 : CM (complete main)
Format settings, Endianness    : Big
Codec ID                       : 2000
Duration                       : 1h 37mn
Bit rate mode                  : Constant
Bit rate                       : 192 Kbps
Channel(s)                     : 2 channels
Channel positions              : Front: L R
Sampling rate                  : 48.0 KHz
Bit depth                      : 16 bits
Compression mode               : Lossy
Stream size                    : 133 MiB (11%)
Alignment                      : Split accross interleaves
Interleave, duration           : 42 ms (1.00 video frame)
Interleave, preload duration   : 500 ms
-Скриншоты:


Смотреть онлайн

[trackeroc.ru].11514.torrent 
Торрент: Зарегистрирован   [ 2016-02-06 19:13 ]

Скачать торрент

13 KB

Статус: проверено
Скачан: 11 раз
Размер: 1.24 GB
 

Похожие торренты
Форум Тема Автор Размер
Документальные Трейлеры Проект: Динозавр / T.Rex: Autopsy (2015) HDTV [H.264/1080i] BiOS 7.68 GB
Боевики Проект 12: Бункер / Project 12: The Bunker [2016, DVDRip] Admin 1.36 GB
Зарубежные Яблочное Зёрнышко: Проект Альфа / Appleseed Alpha (2014) BDRip (фильм третий) BiOS 7.39 GB
Shooter шутеры стрелялки FEAR: Проект «Персей» / F.E.A.R Perseus Mandate (RUS) Admin 3.92 GB

_________________
[Профиль] [ЛС]
Показать сообщения:    
Ответить на тему

Текущее время: Сегодня 01:07

Часовой пояс: GMT + 4



Вы не можете начинать темы
Вы не можете отвечать на сообщения
Вы не можете редактировать свои сообщения
Вы не можете удалять свои сообщения
Вы не можете голосовать в опросах
Вы не можете прикреплять файлы к сообщениям
Вы можете скачивать файлы