Провал во времени / Retroactive (1997) HDTVRip

Ответить на тему

Статистика раздачи [Обновить пиров]
Размер:  1.45 GB   |    Зарегистрирован:  6 месяцев 21 день   |    Скачан:  2 раза

Полного источника не было: 9 дней

 
 
 
 
Автор Сообщение

BiOS ®

Стаж: 2 года 7 месяцев

Сообщений: 1733

Откуда: Raccoon City


Пост 18-Май-2016 13:30

[Цитировать]

Провал во времени / Retroactive - Производство: США
Жанр: Фантастика, боевик, триллер, криминал, приключения
Режиссер: Луи Морно
Актеры: Джеймс Белуши, Кайли Трэвис, Шэннон Уирри, Фрэнк Уэйли, Джесси Боррего, М. Эммет Уолш, Шерман Ховард, Гай Бойд, Кристина Коггинс, Робби Тибо мл.
Описание: Под ярким солнцем Великой Американской равнины, на одинокой, продуваемой всеми ветрами автозаправочной станции происходит жестокое преступление. Эти, леденящие душу события происходят на глазах Карен, попутчицы человека, оказавшегося беспощадным убийцей. Спасаясь от его преследования, Карен вновь и вновь возвращается в прошлое, но всего лишь на 20 минут назад для того, чтобы предотвратить уже совершенное убийство. Один убийца! Один свидетель! Один шанс спастись!
Возраст: 16+ (зрителям, достигшим 16 лет)
Рейтинг MPAA: R (лицам до 17 лет обязательно присутствие взрослого)
Продолжительность: 01:27:13
Качество видео: HDTVRip
Перевод: Профессиональный двухголосый
Субтитры: Отсутствуют
Видео: MPEG4, XviD, 720x400 (16:9), 25.000 fps, 1 986 Kbps (0.276 bit/pixel)
Аудио #1: AC-3, 44.1 KHz, 2 ch, 192 Kbps, CBR | Русский
Аудио #2: AC-3, 44.1 KHz, 2 ch, 192 Kbps, CBR | Английский

MediaInfo:

Код:
Общее
Полное имя                               : C:\Proval vo vremeni 1997 HDTVRip.avi
Формат                                   : AVI
Формат/Информация                        : Audio Video Interleave
Размер файла                             : 1,45 Гбайт
Продолжительность                        : 1 ч. 27 м.
Общий поток                              : 2385 Кбит/сек
Программа кодирования                    : VirtualDubMod 1.5.10.3 | www.virtualdub-fr.org || (build 2550/release)
Библиотека кодирования                   : VirtualDubMod build 2550/release
Видео
Идентификатор                            : 0
Формат                                   : MPEG-4 Visual
Профиль формата                          : Advanced Simple@L5
Параметр BVOP формата                    : 1
Параметр QPel формата                    : Нет
Параметр GMC формата                     : Без точки перехода
Параметр матрицы формата                 : Default (MPEG)
Идентификатор кодека                     : XVID
Идентификатор кодека/Подсказка           : XviD
Продолжительность                        : 1 ч. 27 м.
Битрейт                                  : 1986 Кбит/сек
Ширина                                   : 720 пикселей
Высота                                   : 400 пикселей
Соотношение сторон                       : 16:9
Частота кадров                           : 25,000 кадров/сек
Цветовое пространство                    : YUV
Субдискретизация насыщенности            : 4:2:0
Битовая глубина                          : 8 бит
Тип развёртки                            : Прогрессивная
Метод сжатия                             : С потерями
Бит/(Пиксели*Кадры)                      : 0.276
Размер потока                            : 1,21 Гбайт (83%)
Библиотека кодирования                   : XviD 64
Аудио #1
Идентификатор                            : 1
Формат                                   : AC-3
Формат/Информация                        : Audio Coding 3
Расширение режима                        : CM (complete main)
Параметр Endianness формата              : Big
Идентификатор кодека                     : 2000
Продолжительность                        : 1 ч. 27 м.
Вид битрейта                             : Постоянный
Битрейт                                  : 192 Кбит/сек
Каналы                                   : 2 канала
Расположение каналов                     : Front: L R
Частота                                  : 44,1 КГц
Частота кадров                           : 28,711 кадров/сек (1536 spf)
Метод сжатия                             : С потерями
Размер потока                            : 120 Мбайт (8%)
Выравнивание                             : Разделение по промежуткам
Продолжительность промежутка             : 40  мс. (1,00 видеокадр)
Время предзагрузки промежутка            : 500  мс.
Аудио #2
Идентификатор                            : 2
Формат                                   : AC-3
Формат/Информация                        : Audio Coding 3
Расширение режима                        : CM (complete main)
Параметр Endianness формата              : Big
Идентификатор кодека                     : 2000
Продолжительность                        : 1 ч. 27 м.
Вид битрейта                             : Постоянный
Битрейт                                  : 192 Кбит/сек
Каналы                                   : 2 канала
Расположение каналов                     : Front: L R
Частота                                  : 44,1 КГц
Частота кадров                           : 28,711 кадров/сек (1536 spf)
Метод сжатия                             : С потерями
Размер потока                            : 120 Мбайт (8%)
Выравнивание                             : Разделение по промежуткам
Продолжительность промежутка             : 40  мс. (1,00 видеокадр)
Время предзагрузки промежутка            : 500  мс.
-Скриншоты:


Смотреть онлайн

[trackeroc.ru].12740.torrent 
Торрент: Зарегистрирован   [ 2016-05-18 13:30 ]

Скачать торрент

15 KB

Статус: проверено
Скачан: 23 раз
Размер: 1.45 GB
 

Admin (18-май-16)
Похожие торренты
Форум Тема Автор Размер
Зарубежные сериалы Вне времени / Timeless (2016) WEB-DLRip (сезон 1, серии 1-9 из 13) BiOS 3.62 GB
Российские сериалы По законам военного времени (2016) DVBRip (серии 1-12 из 12) BiOS 8.57 GB
Квесты , я ищу , Поиск предметов Hidden Object Ominous Objects 3: Trail of Time Collectors Edition/ Зловещие вещи 3: Тропами времени (2015) (Big Fish Games) (RUS) [P] HOPE 1.02 GB
Российские Пингвин нашего времени [2015, комедия, триллер, WEB-DLRip] Admin 1.37 GB

_________________
[Профиль] [ЛС]
Показать сообщения:    
Ответить на тему

Текущее время: Сегодня 15:51

Часовой пояс: GMT + 4



Вы не можете начинать темы
Вы не можете отвечать на сообщения
Вы не можете редактировать свои сообщения
Вы не можете удалять свои сообщения
Вы не можете голосовать в опросах
Вы не можете прикреплять файлы к сообщениям
Вы можете скачивать файлы