Пятница 13-е - Месть / Vengeance (2019) WEB-DLRip [MVO] [AD] скачать торрент

Reply to topic

DL-List and Torrent activity [Update пиров]
Size:  1.35 GB   |    Registered:  13 days   |    Completed:  0 times
Seeders:  1  [  0 KB/s  ]   Show peers in full details
 
 
 
 
Author Message

BiOS ®

Longevity: 5 years 7 months

Posts: 2373

Location: Earth


Post 23-Nov-2019 13:04

[Quote]

Пятница 13-е - Месть / Vengeance
«Father Knows Best»
- Производство: США / Real Fiction Studios, Brownspace Films, Land of NOD Productions
Жанр: Ужасы
Режиссер: Джереми В. Браун, Dustin Montierth
Актеры: Том Маклафлин, С.Дж. Грэхэм, Джейсон Брукс, Levy Menn, Jenny Porter, Caleb Ryden, Bri Patin, Kelly Tappan, Sanae Loutsis, Jon A. Ravenholt
Описание:
"Пятница 13-е - Месть" - прямое продолжение шестой части серии, "Джейсон жив!", вышедшей в 1986 году. История начинается с возвращения на Хрустальное озеро Элиаса Вурхиза, отца Джейсона, после чего следует череда ужасных убийств в округе. Услышав новости о произошедшем, Томми Джарвис отправляется в путь и тоже пропадает без вести, не оставляя своей дочери Анжелике Джарвис ничего иного как пуститься на поиски, чтобы не только вернуть своего отца, но и наконец найти способ уничтожить его заклятого врага - Джейсона Вурхиза.

Дата мировой премьеры: 13 сентября 2019
Продолжительность: 01:34:18
Качество видео: WEB-DLRip
Перевод: Многоголосый закадровый, профессиональный (Синема УС)
Субтитры: Отсутствуют
Реклама: Присутствует баннер.
Видео: XviD, 720x304, ~1647 Kbps
Аудио: AC-3, 2 ch, 384 Kbps

MediaInfo:

Общее
Полное имя : Vengeance.2019.WEB-DLRip.avi
Формат : AVI
Формат/Информация : Audio Video Interleave
Профиль формата : OpenDML
Размер файла : 1,35 Гбайт
Продолжительность : 1 ч. 34 м.
Общий поток : 2043 Кбит/сек
Видео
Идентификатор : 0
Формат : MPEG-4 Visual
Профиль формата : Advanced Simple@L5
Настройки формата : BVOP2
Параметр BVOP формата : 2
Параметр QPel формата : Нет
Параметр GMC формата : Без точки перехода
Параметр матрицы формата : Default (H.263)
Идентификатор кодека : XVID
Идентификатор кодека/Подсказка : XviD
Продолжительность : 1 ч. 34 м.
Битрейт : 1647 Кбит/сек
Ширина : 720 пикселей
Высота : 304 пикселя
Соотношение сторон : 2,35:1
Частота кадров : 23,976 (24000/1001) кадра/сек
Цветовое пространство : YUV
Субдискретизация насыщенности : 4:2:0
Битовая глубина : 4 бит
Тип развёртки : Прогрессивная
Метод сжатия : С потерями
Бит/(Пиксели*Кадры) : 0.314
Размер потока : 1,08 Гбайт (81%)
Библиотека кодирования : XviD 1.2.1 (UTC 2008-12-04)
Аудио
Идентификатор : 1
Формат : AC-3
Формат/Информация : Audio Coding 3
Коммерческое название : Dolby Digital
Идентификатор кодека : 2000
Продолжительность : 1 ч. 34 м.
Вид битрейта : Постоянный
Битрейт : 384 Кбит/сек
Каналы : 2 канала
ChannelLayout : M M
Частота : 48,0 КГц
Частота кадров : 31,250 кадров/сек (1536 SPF)
Битовая глубина : 16 бит
Метод сжатия : С потерями
Размер потока : 259 Мбайт (19%)
Выравнивание : Соединение по промежуткам
Продолжительность промежутка : 32 мс. (0,77 видеокадр)
ServiceKind/String : Complete Main
-Скриншоты:


Смотреть онлайн


[trackeroc.org].29550.torrent 
Torrent: Registered   [ 2019-11-23 13:04 ]

Скачать торрент

14 KB

Status: checked
Completed: 2 times
Size: 1.35 GB
 

Admin (23-ноя-19)
Similar torrent
Forum Topic Author Size
Зарубежные сериалы Сверхъестественное / Supernatural (2005-2015) BDRemux [H.264/1080p] (сезон 1-10, серии 1-218 из 218) Рен-ТВ, Пятница, NovaFilm, LostFilm BiOS 1.177 TB

_________________
[Profile] [PM]
Display posts from previous:    
Reply to topic

The time now is: Today 02:36

All times are GMT + 4 Hours



You cannot post new topics in this forum
You cannot reply to topics in this forum
You cannot edit your posts in this forum
You cannot delete your posts in this forum
You cannot vote in polls in this forum
You cannot attach files in this forum
You can download files in this forum