Репортерша / Whiskey Tango Foxtrot [2016] скачать торрент

Reply to topic

DL-List and Torrent activity [Update пиров]
Size:  2.13 GB   |    Registered:  3 years 5 months   |    Completed:  2 times
Seeders:  224  [  0 KB/s  ]   Leechers:  39  [  0 KB/s  ]   Show peers in full details
 
 
 
 
Author Message

Admin ®

Longevity: 5 years 8 months

Posts: 9019

Location: Скачать торрент


Post 24-Jul-2016 10:32

[Quote]

Репортерша
Whiskey Tango Foxtrot

Страна: США
Жанр: драма, комедия, военный, биография
Год выпуска: 2016
Продолжительность: 01:51:48
Перевод: Профессиональный (полное дублирование) [iTunes]
Субтитры: русские (форсированные, полные), английские (форсированные, полные, SDH)
Оригинальная аудиодорожка: английский
Режиссер: Гленн Фикарра / Glenn Ficarra, Джон Рекуа / John Requa
В ролях: Тина Фей, Марго Робби, Мартин Фриман, Альфред Молина, Кристофер Эбботт, Билли Боб Торнтон, Николас Браун, Стивен Пикок, Шейла Ванд, Эван Йоникит, Фахим Анвар, Джош Чарльз
Описание:
Фильм расскажет о деятельности журналистки в качестве репортёра в Афганистане и Пакистане, после прибытия туда в 2002 году.

Качество видео: BDRip-AVC [Whiskey Tango Foxtrot (2016) 1080p BD-Remux HDCLUB]
Формат видео: MKV
Видео: 2153 Кбит/сек, 1024*576 (16:9), в 23,976 (24000/1001) кадра/сек, AVC
Аудио #1: русский, 384 Кбит/сек, 48,0 КГц, 6 каналов, AC-3
Аудио #2: английский, 192 Кбит/сек, 48,0 КГц, 2 канала, AC-3
Навигация по главам: есть

MediaInfo

Общее
Уникальный идентификатор : 205691686958330757869808148250551871987 (0x9ABEC725ED19A671AE02DC43179369F3)
Полное имя : M:Rips\Whiskey Tango Foxtrot\Whiskey.Tango.Foxtrot.2016.BDRip-AVC.Dub.2.18Gb.stalkerok.new-team.mkv
Формат : Matroska
Версия формата : Version 4 / Version 2
Размер файла : 2,13 Гбайт
Продолжительность : 1 ч. 51 м.
Общий поток : 2730 Кбит/сек
Название фильма : Whiskey Tango Foxtrot (2016) (Rip by stalkerok)
Дата кодирования : UTC 2016-07-21 18:08:52
Программа кодирования : mkvmerge v8.6.1 ('Flying') 64bit
Библиотека кодирования : libebml v1.3.3 + libmatroska v1.4.4
Видео
Идентификатор : 1
Формат : AVC
Формат/Информация : Advanced Video Codec
Профиль формата : High@L4.1
Параметр CABAC формата : Да
Параметр ReFrames формата : 13 кадров
Идентификатор кодека : V_MPEG4/ISO/AVC
Продолжительность : 1 ч. 51 м.
Битрейт : 2153 Кбит/сек
Ширина : 1024 пикселя
Высота : 576 пикселей
Соотношение сторон : 16:9
Режим частоты кадров : Постоянный
Частота кадров : 23,976 (24000/1001) кадра/сек
Цветовое пространство : YUV
Субдискретизация насыщенности : 4:2:0
Битовая глубина : 8 бит
Тип развёртки : Прогрессивная
Бит/(Пиксели*Кадры) : 0.152
Размер потока : 1,68 Гбайт (79%)
Заголовок : Whiskey Tango Foxtrot (2016) (Rip by stalkerok)
Библиотека кодирования : x264 core 148 r2705+54 9f484c1 t_mod_Custom [8-bit@all X86_64]
Настройки программы : cabac=1 / ref=13 / deblock=1:-3:-2 / analyse=0x3:0x133 / me=umh / subme=10 / psy=1 / fade_compensate=0.00 / psy_rd=1.00:0.00 / mixed_ref=1 / me_range=32 / chroma_me=1 / trellis=2 / 8x8dct=1 / cqm=0 / deadzone=21,11 / fast_pskip=0 / chroma_qp_offset=-2 / threads=12 / lookahead_threads=3 / sliced_threads=0 / nr=0 / decimate=0 / interlaced=0 / bluray_compat=0 / constrained_intra=0 / fgo=0 / bframes=14 / b_pyramid=2 / b_adapt=2 / b_bias=0 / direct=3 / weightb=1 / open_gop=0 / weightp=2 / keyint=240 / keyint_min=23 / scenecut=40 / intra_refresh=0 / rc_lookahead=60 / rc=2pass / mbtree=0 / bitrate=2153 / ratetol=1.0 / qcomp=0.65 / qpmin=0:0:0 / qpmax=69:69:69 / qpstep=4 / cplxblur=20.0 / qblur=0.5 / vbv_maxrate=50000 / vbv_bufsize=62500 / nal_hrd=none / filler=0 / ip_ratio=1.40 / pb_ratio=1.30 / aq=3:0.85 / aq-sensitivity=10.00 / aq-factor=1.00:1.00:1.00 / aq2=0 / aq3=0
Default : Да
Forced : Нет
Аудио #1
Идентификатор : 2
Формат : AC-3
Формат/Информация : Audio Coding 3
Расширение режима : CM (complete main)
Параметр Endianness формата : Big
Идентификатор кодека : A_AC3
Продолжительность : 1 ч. 51 м.
Вид битрейта : Постоянный
Битрейт : 384 Кбит/сек
Каналы : 6 каналов
Расположение каналов : Front: L C R, Side: L R, LFE
Частота : 48,0 КГц
Частота кадров : 31,250 кадров/сек (1536 spf)
Метод сжатия : С потерями
Размер потока : 307 Мбайт (14%)
Язык : Russian
Default : Да
Forced : Нет
Аудио #2
Идентификатор : 3
Формат : AC-3
Формат/Информация : Audio Coding 3
Расширение режима : CM (complete main)
Параметр Endianness формата : Big
Идентификатор кодека : A_AC3
Продолжительность : 1 ч. 51 м.
Вид битрейта : Постоянный
Битрейт : 192 Кбит/сек
Каналы : 2 канала
Расположение каналов : Front: L R
Частота : 48,0 КГц
Частота кадров : 31,250 кадров/сек (1536 spf)
Метод сжатия : С потерями
Размер потока : 154 Мбайт (7%)
Язык : English
Default : Нет
Forced : Нет
Текст #1
Идентификатор : 4
Формат : UTF-8
Идентификатор кодека : S_TEXT/UTF8
Идентификатор кодека/Информация : UTF-8 Plain Text
Продолжительность : 1 ч. 45 м.
Битрейт : 1 бит/сек
Count of elements : 33
Размер потока : 1,29 Кбайт (0%)
Заголовок : Forced
Язык : Russian
Default : Да
Forced : Нет
Текст #2
Идентификатор : 5
Формат : UTF-8
Идентификатор кодека : S_TEXT/UTF8
Идентификатор кодека/Информация : UTF-8 Plain Text
Продолжительность : 1 ч. 45 м.
Битрейт : 104 бит/сек
Count of elements : 1595
Размер потока : 81,2 Кбайт (0%)
Язык : Russian
Default : Нет
Forced : Нет
Текст #3
Идентификатор : 6
Формат : UTF-8
Идентификатор кодека : S_TEXT/UTF8
Идентификатор кодека/Информация : UTF-8 Plain Text
Продолжительность : 1 ч. 22 м.
Битрейт : 0 бит/сек
Count of elements : 20
Размер потока : 424 байт (0%)
Заголовок : Forced
Язык : English
Default : Нет
Forced : Нет
Текст #4
Идентификатор : 7
Формат : UTF-8
Идентификатор кодека : S_TEXT/UTF8
Идентификатор кодека/Информация : UTF-8 Plain Text
Продолжительность : 1 ч. 43 м.
Битрейт : 69 бит/сек
Count of elements : 1657
Размер потока : 52,4 Кбайт (0%)
Язык : English
Default : Нет
Forced : Нет
Текст #5
Идентификатор : 8
Формат : UTF-8
Идентификатор кодека : S_TEXT/UTF8
Идентификатор кодека/Информация : UTF-8 Plain Text
Продолжительность : 1 ч. 44 м.
Битрейт : 77 бит/сек
Count of elements : 1878
Размер потока : 58,9 Кбайт (0%)
Заголовок : SDH
Язык : English
Default : Нет
Forced : Нет
Меню
00:00:00.000 : en:Chapter 1
00:07:46.466 : en:Chapter 2
00:13:47.909 : en:Chapter 3
00:23:38.834 : en:Chapter 4
00:30:28.660 : en:Chapter 5
00:37:27.036 : en:Chapter 6
00:45:36.775 : en:Chapter 7
00:55:40.586 : en:Chapter 8
01:05:02.106 : en:Chapter 9
01:12:14.454 : en:Chapter 10
01:17:50.332 : en:Chapter 11
01:24:56.006 : en:Chapter 12
01:34:04.970 : en:Chapter 13
01:39:50.650 : en:Chapter 14

Скриншоты



Смотреть онлайн


[trackeroc.ru].14033.torrent 
Torrent: Registered   [ 2016-07-24 10:32 ]

Скачать торрент

11 KB

Status: checked
Completed: 128 times
Size: 2.13 GB
 


_________________
[Profile] [PM]
Display posts from previous:    
Reply to topic

The time now is: Today 19:05

All times are GMT + 4 Hours



You cannot post new topics in this forum
You cannot reply to topics in this forum
You cannot edit your posts in this forum
You cannot delete your posts in this forum
You cannot vote in polls in this forum
You cannot attach files in this forum
You can download files in this forum