Рождённая звездой / Серии: 1-12 из 12 (Марат Ким, Владимир Шевельков) [2015, мелодрама, HDTV (1080i)]

Ответить на тему

Статистика раздачи [Обновить пиров]
Размер:  30.82 GB   |    Зарегистрирован:  1 год 1 месяц   |    Скачан:  2 раза

Полного источника не было: 24 дня

 
 
 
 
Автор Сообщение

Матвей ®

Стаж: 1 год 2 месяца

Сообщений: 236

Откуда: Челябинск


Пост 18-Окт-2015 19:08

[Цитировать]

Рождённая звездой- -Год выпуска: 2015
Производство: INK Film
Жанр: мелодрама
Продолжительность: 00:45:00
Субтитры: нет-Режиссёр: Марат Ким, Владимир Шевельков-В ролях:
Марина Александрова, Игорь Петренко, Ольга Сутулова, Николай Иванов (III), Галина Петрова, Анна Цуканова, Сергей Гузеев,
Дарья Румянцева, Олег Алмазов, Тамара Акулова, Алексей Франдетти, Маргарита Адаева, Владимир Шевельков, Андреа Бартелуччи-Описание:
История о любви и музыке на фоне эпохи. 50-е–60-е годы XX века подарили нам целую плеяду талантливых артистов, ставших легендами советской эстрады. Главная героиня фильма – певица Клаудиа Коваль (Марина Александрова) – вымышленный и собирательный персонаж, в судьбе которой угадывается жизненный и творческий путь многих известных певиц того времени, таких как: Майя Кристалинская, Аида Ведищева, Тамара Миансарова, Нина Бродская и других. Клаудия Коваль - студентка Ленинградского университета, родом из Польши. Она никогда не планировала связывать свою жизнь с музыкой, пока не познакомилась с обаятельным и талантливым композитором Павлом Шаховским. Шаховской, для друзей просто Пал Саныч, был очарован красотой и уникальными вокальными данными Клаудии и предложил ей стать солисткой своего ансамбля. Победа на Всемирном фестивале молодежи и студентов открыла Клаудии дорогу на большую эстраду. Впереди ее ждет большое будущее - зарубежные гастроли, поклонники и всесоюзная слава. Пал Саныч же понимает, что нашел не только певицу, но и свою любовь. Он решает сделать из своей любимой девушки звезду эстрады, не предполагая, что за успех и славу придется расплачиваться личным счастьем.-Возраст: 12+-Качество: HDTV (1080i)
Формат: TS
Видео кодек: AVC
Аудио кодек: MP2

Видео: AVC, 1920 х 1080 (16:9), 25,000 кадр/сек, 7 866 Кбит/сек, 0.152 bit/pixel
Аудио: MP2, 48000 Hz, 192 Kbps, 2 канала
-

MediaInfo

General
ID : 1 (0x1)
Complete name : D:\Раздачи\Рождённая звездой (1-12 серий из 12) HDTV (1080i)\Rozhdennaja.zvezdoj.01.2015.HDTV.1080i.ts
Format : MPEG-TS
File size : 2.58 GiB
Duration : 43mn 34s
Overall bit rate mode : Variable
Overall bit rate : 8 479 Kbps
Video
ID : 2911 (0xB5F)
Menu ID : 1009 (0x3F1)
Format : AVC
Format/Info : Advanced Video Codec
Format profile : High@L4
Format settings, CABAC : Yes
Format settings, ReFrames : 4 frames
Codec ID : 27
Duration : 43mn 34s
Bit rate : 7 866 Kbps
Width : 1 920 pixels
Height : 1 080 pixels
Display aspect ratio : 16:9
Frame rate : 25.000 fps
Color space : YUV
Chroma subsampling : 4:2:0
Bit depth : 8 bits
Scan type : MBAFF
Scan order : Top Field First
Bits/(Pixel*Frame) : 0.152
Stream size : 2.39 GiB (93%)
Audio
ID : 2912 (0xB60)
Menu ID : 1009 (0x3F1)
Format : MPEG Audio
Format version : Version 1
Format profile : Layer 2
Mode : Joint stereo
Mode extension : Intensity Stereo + MS Stereo
Codec ID : 3
Duration : 43mn 34s
Bit rate mode : Constant
Bit rate : 192 Kbps
Channel(s) : 2 channels
Sampling rate : 48.0 KHz
Compression mode : Lossy
Stream size : 59.8 MiB (2%)
Language : Russian
-

Скриншоты сериала


-


Смотреть онлайн

[trackeroc.ru].8932.torrent 
 ЗОЛОТАЯ РАЗДАЧА! СКАЧАННОЕ НЕ ЗАСЧИТЫВАЕТСЯ! 
Торрент: Зарегистрирован   [ 2015-10-18 19:08 ]

Скачать торрент

156 KB

Статус: проверено
Скачан: 13 раз
Размер: 30.82 GB
 

Admin (18-окт-15)

_________________

[Профиль] [ЛС]
Показать сообщения:    
Ответить на тему

Текущее время: Сегодня 04:05

Часовой пояс: GMT + 4



Вы не можете начинать темы
Вы не можете отвечать на сообщения
Вы не можете редактировать свои сообщения
Вы не можете удалять свои сообщения
Вы не можете голосовать в опросах
Вы не можете прикреплять файлы к сообщениям
Вы можете скачивать файлы