Ронал-варвар / Ronal Barbaren (2011) [720p] BDRip

Ответить на тему

Статистика раздачи [Обновить пиров]
Размер:  2.92 GB   |    Зарегистрирован:  1 год 4 месяца   |    Скачан:  0 раз
DL-List: Нет

Полного источника не было: 1 год 4 месяца

 
 
 
 
Автор Сообщение

BiOS ®

Стаж: 2 года 7 месяцев

Сообщений: 1738

Откуда: Raccoon City


Пост 18-Июл-2015 07:53

[Цитировать]

Ронал-варвар / Ronal Barbaren - Русское название: Ронал-варвар
Оригинальное название: Ronal Barbaren
Год выпуска: 2011
Жанр: мультфильм, фэнтези, приключения
Описание:
Ронал — самый нетипичный варвар на Земле. Его не интересуют ни битвы, ни завоевания, ни пиры. Больше всего на свете ему хочется, чтобы все просто оставили его в покое. Но судьба распоряжается иначе. Однажды злобный принц Вольказар, вождь враждебного племени, захватывает всех варваров в плен, чтобы принести их в жертву древним богам и обрести власть над миром. На свободе остается лишь Ронал. И теперь ему вместе с безалаберным бардом Алибером, мускулистой девой-воительницей Зандрой и эльфом-метросексуалом Эльриком предстоит пройти множество испытаний, чтобы освободить свой народ, обрести веру в себя и… найти любовь.
Режиссер: Крестен Вестбьерг Андерсен, Торбьорн Кристофферсен, Филип Эйнштейн Липски
Персонажи: Андерс Юль, Хади Ка-Куш, Лерке Винтер Андерсен, Брайан Лукке, Ларс Миккельсен, Питер Од, Ларс Бом, Оле Теструп, Пребен Кристенсен, Оле Эрнст
Продолжительность: 01:29:18
Перевод: Дублированный [Лицензия] + Профессиональный многоголосый-Дата мировой премьеры: 29 сентября 2011
Дата российской премьеры: 1 декабря 2011, «Вольга»
Дата выхода Blu-Ray релиза: 16 февраля 2012, «Вольга»-Видеокодек: MPEG 4 AVC / H.264
Битрейт видео: ~ 3649 Кбит/сек
Размер кадра: 1280x536
Качество видео: BDRip (batonchik)
Аудио:
Аудио 1: Русский; DTS; 755 Kbps; CBR; 6 ch; 16 bit - Дублированный
Аудио 2: Русский; AC3; 256 Kbps; CBR; 6 ch; 16 bit - Многоголосый

MediaInfo 0.7.53 (детальная информация о файле)

Общее
Уникальный идентификатор : 207967146294904368184117735833319744600 (0x9C7503F484D41D7893FA830FA83BA458)
Полное имя : \Ronal Barbaren (2011) [720p] BDRip NNM-CLUB.mkv
Формат : Matroska
Версия формата : Version 2
Размер файла : 2,92 Гбайт
Продолжительность : 1 ч. 29 м.
Режим общего битрейта : Переменный
Общий поток : 4675 Кбит/сек
Название фильма : Ronal Barbaren (2011) [720p] BDRip NNM-CLUB
Дата кодирования : UTC 2012-02-07 04:35:53
Программа кодирования : mkvmerge v5.2.1 ('A Far Off Place') built on Jan 2 2012 23:21:10
Библиотека кодирования : libebml v1.2.3 + libmatroska v1.3.0
Видео
Идентификатор : 1
Формат : AVC
Формат/Информация : Advanced Video Codec
Профиль формата : High@L4.1
Параметр CABAC формата : Да
Параметр ReFrames формата : 12 кадров
Параметр GOP формата : M=1, N=23
Идентификатор кодека : V_MPEG4/ISO/AVC
Продолжительность : 1 ч. 29 м.
Вид битрейта : Переменный
Битрейт : 3649 Кбит/сек
Максимальный битрейт : 50,0 Мбит/сек
Ширина : 1280 пикселей
Высота : 536 пикселей
Соотношение сторон : 2,40:1
Частота кадров : 23,976 кадра/сек
Цветовое пространство : YUV
Субдискретизация насыщенности : 4:2:0
Битовая глубина : 8 бит
Тип развёртки : Прогрессивная
Бит/(Пиксели*Кадры) : 0.222
Размер потока : 2,23 Гбайт (76%)
Заголовок : Ronal Barbaren (2011) [720p] BDRip NNM-CLUB {batonchik)
Библиотека кодирования : x264 core 120 r2146 bcd41db
Настройки программы : cabac=1 / ref=12 / deblock=1:-1:-1 / analyse=0x3:0x133 / me=umh / subme=11 / psy=1 / psy_rd=0.40:0.00 / mixed_ref=1 / me_range=48 / chroma_me=1 / trellis=2 / 8x8dct=1 / cqm=0 / deadzone=21,11 / fast_pskip=1 / chroma_qp_offset=-2 / threads=12 / sliced_threads=0 / slices=4 / nr=0 / decimate=1 / interlaced=0 / bluray_compat=0 / constrained_intra=0 / bframes=3 / b_pyramid=2 / b_adapt=2 / b_bias=0 / direct=1 / weightb=1 / open_gop=0 / weightp=2 / keyint=23 / keyint_min=1 / scenecut=40 / intra_refresh=0 / rc_lookahead=29 / rc=2pass / mbtree=1 / bitrate=3649 / ratetol=1.0 / qcomp=0.60 / qpmin=0 / qpmax=69 / qpstep=4 / cplxblur=20.0 / qblur=0.5 / vbv_maxrate=50000 / vbv_bufsize=62500 / nal_hrd=vbr / ip_ratio=1.40 / aq=1:0.60
Язык : Danish
Default : Да
Forced : Нет
Аудио #1
Идентификатор : 2
Формат : DTS
Формат/Информация : Digital Theater Systems
Идентификатор кодека : A_DTS
Продолжительность : 1 ч. 29 м.
Вид битрейта : Постоянный
Битрейт : 755 Кбит/сек
Каналы : 6 каналов
Расположение каналов : Front: L C R, Side: L R, LFE
Частота : 48,0 КГц
Битовая глубина : 24 бит
Метод сжатия : С потерями
Размер потока : 482 Мбайт (16%)
Заголовок : Дублированный
Язык : Russian
Default : Да
Forced : Нет
Аудио #2
Идентификатор : 3
Формат : AC-3
Формат/Информация : Audio Coding 3
Расширение режима : CM (complete main)
Идентификатор кодека : A_AC3
Продолжительность : 1 ч. 29 м.
Вид битрейта : Постоянный
Битрейт : 256 Кбит/сек
Каналы : 6 каналов
Расположение каналов : Front: L C R, Side: L R, LFE
Частота : 48,0 КГц
Битовая глубина : 16 бит
Метод сжатия : С потерями
Размер потока : 164 Мбайт (5%)
Заголовок : Многоголосый
Язык : Russian
Default : Нет
Forced : Нет
Меню
00:00:00.000 : :00:00:00.000
00:09:15.972 : :00:09:15.972
00:15:16.790 : :00:15:16.790
00:24:42.856 : :00:24:42.856
00:31:34.309 : :00:31:34.309
00:38:47.158 : :00:38:47.158
00:47:34.351 : :00:47:34.351
00:56:31.429 : :00:56:31.429
01:02:02.427 : :01:02:02.427
01:08:37.905 : :01:08:37.905
01:16:10.899 : :01:16:10.899
01:24:47.415 : :01:24:47.415
Скриншоты:


Смотреть онлайн

[trackeroc.ru].7072.torrent 
Торрент: Зарегистрирован   [ 2015-07-18 07:53 ]

Скачать торрент

15 KB

Статус: проверено
Скачан: 14 раз
Размер: 2.92 GB
 


_________________
[Профиль] [ЛС]
Показать сообщения:    
Ответить на тему

Текущее время: Сегодня 05:05

Часовой пояс: GMT + 4



Вы не можете начинать темы
Вы не можете отвечать на сообщения
Вы не можете редактировать свои сообщения
Вы не можете удалять свои сообщения
Вы не можете голосовать в опросах
Вы не можете прикреплять файлы к сообщениям
Вы можете скачивать файлы