Сектор Газа «Дракула Хой» (2014) MPEG-4 | Тизер

Ответить на тему

Статистика раздачи [Обновить пиров]
Размер:  30 MB   |    Зарегистрирован:  23 дня   |    Скачан:  1 раз

Полного источника не было: 17 дней

 
 
 
 
Автор Сообщение

BiOS ®

Стаж: 2 года 7 месяцев

Сообщений: 1732

Откуда: Raccoon City


Пост 13-Ноя-2015 04:03

[Цитировать]

Сектор Газа «Дракула Хой»- Жанр: Страна: Россия (Курск)
Год выпуска: 2014
Жанр: Тизер, Триллер, Ужасы-Описание:
Начинающий музыкант Юрий Хой, чтобы пробиться из «провинциального болота» к вершинам шоубизнеса, связывается с сомнительными личностями, и открывает для себя темную, мистическую сторону бытия. Там, на краю бездны, поставив под удар жизни родных, Юра, наконец, понимает, что действительно ценно, и вступает в борьбу с силами ада-Продолжительность: 1.~00.01.41; 2.~00.02.35
Качество видео: MPEG-4
Перевод: Нетребуется-Видео: AVC, 480х360, ~284 Кбит/сек
Аудио: AAC, 2 ch, 96 Кбит/сек-Видео: AVC, 1280х720, ~2079 Кбит/сек
Аудио: AAC, 2 ch, 192 Кбит/сек-

MediaInfo

Код:
Общее
Формат : MPEG-4
Профиль формата : Base Media / Version 2
Идентификатор кодека : mp42
Размер файла : 4,60 Мбайт
Продолжительность : 1 м. 40 с.
Режим общего битрейта : Переменный
Общий поток : 382 Кбит/сек
Дата кодирования : UTC 2014-08-25 01:05:09
Дата пометки : UTC 2014-08-25 01:05:09
gsst : 0
gstd : 101075
gssd : BD4142284
gshh : r1---sn-gvnuxaxjvh-v8cl.googlevideo.com
Видео
Идентификатор : 1
Формат : AVC
Формат/Информация : Advanced Video Codec
Профиль формата : Baseline@L2.1
Параметр CABAC формата : Нет
Параметр ReFrames формата : 1 кадр
Идентификатор кодека : avc1
Идентификатор кодека/Информация : Advanced Video Coding
Продолжительность : 1 м. 40 с.
Битрейт : 284 Кбит/сек
Максимальный битрейт : 1000 Кбит/сек
Ширина : 480 пикселей
Высота : 360 пикселей
Соотношение сторон : 4:3
Режим частоты кадров : Постоянный
Частота кадров : 25,000 кадров/сек
Цветовое пространство : YUV
Субдискретизация насыщенности : 4:2:0
Битовая глубина : 8 бит
Тип развёртки : Прогрессивная
Бит/(Пиксели*Кадры) : 0.066
Размер потока : 3,42 Мбайт (74%)
Дата пометки : UTC 2014-08-25 01:05:09
Аудио
Идентификатор : 2
Формат : AAC
Формат/Информация : Advanced Audio Codec
Профиль формата : LC
Идентификатор кодека : 40
Продолжительность : 1 м. 40 с.
Вид битрейта : Переменный
Битрейт : 96,0 Кбит/сек
Максимальный битрейт : 101 Кбит/сек
Каналы : 2 канала
Расположение каналов : Front: L R
Частота : 44,1 КГц
Метод сжатия : С потерями
Размер потока : 1,16 Мбайт (25%)
Заголовок : IsoMedia File Produced by Google, 5-11-2011
Дата кодирования : UTC 2014-08-25 01:05:09
Дата пометки : UTC 2014-08-25 01:05:09
Код:
Общее
Полное имя : C:\Users\Downloads\Сектор Газа Дракула Хой\Сектор Газа Дракула Хой (2).mp4
Формат : MPEG-4
Профиль формата : Base Media / Version 2
Идентификатор кодека : mp42
Размер файла : 42,1 Мбайт
Продолжительность : 2 м. 35 с.
Режим общего битрейта : Переменный
Общий поток : 2273 Кбит/сек
Дата кодирования : UTC 2015-04-02 12:05:45
Дата пометки : UTC 2015-04-02 12:05:45
gsst : 0
gstd : 155295
gssd : BADC23A62
gshh : r2---sn-n8v7ln7y.googlevideo.com
Видео
Идентификатор : 1
Формат : AVC
Формат/Информация : Advanced Video Codec
Профиль формата : High@L3.1
Параметр CABAC формата : Да
Параметр ReFrames формата : 1 кадр
Идентификатор кодека : avc1
Идентификатор кодека/Информация : Advanced Video Coding
Продолжительность : 2 м. 35 с.
Битрейт : 2079 Кбит/сек
Максимальный битрейт : 13,4 Мбит/сек
Ширина : 1280 пикселей
Высота : 720 пикселей
Соотношение сторон : 16:9
Режим частоты кадров : Постоянный
Частота кадров : 25,000 кадров/сек
Цветовое пространство : YUV
Субдискретизация насыщенности : 4:2:0
Битовая глубина : 8 бит
Тип развёртки : Прогрессивная
Бит/(Пиксели*Кадры) : 0.090
Размер потока : 38,5 Мбайт (91%)
Дата кодирования : UTC 1970-01-01 00:00:00
Дата пометки : UTC 2015-04-02 12:05:45
Аудио
Идентификатор : 2
Формат : AAC
Формат/Информация : Advanced Audio Codec
Профиль формата : LC
Идентификатор кодека : 40
Продолжительность : 2 м. 35 с.
Вид битрейта : Переменный
Битрейт : 192 Кбит/сек
Максимальный битрейт : 202 Кбит/сек
Каналы : 2 канала
Расположение каналов : Front: L R
Частота : 44,1 КГц
Метод сжатия : С потерями
Размер потока : 3,55 Мбайт (8%)
Заголовок : IsoMedia File Produced by Google, 5-11-2011
Дата кодирования : UTC 2015-04-02 12:05:45
Дата пометки : UTC 2015-04-02 12:05:45
-Скриншоты:


[trackeroc.ru].9716.torrent 
Торрент: Зарегистрирован   [ 2016-11-14 19:45 ]

Скачать торрент

20 KB

Статус: проверено
Скачан: 57 раз
Размер: 30 MB
 

Dreamka (13-ноя-15), Angel (16-ноя-15), Admin (14-ноя-16), SaN161NeK (14-ноя-16)
Похожие торренты
Форум Тема Автор Размер
Отечественный Рок, Панк, Метал, Альтернатива Сектор Газа - 13 альбомов (1989-2015) Официальная первотиражная дискография [MP3|320 kbps] BiOS 1.42 GB
Сasual games, Тайм менеджмент Невероятный Дракула 2. Последний звонок / Incredible Dracula 2 The Last Call (2016) (RUS) Admin 661 MB
Зарубежные сериалы Нулевой взвод / Сектор Зеро / Section Zero (2016) WEBRip (Сезон 1, серии 1-8) Admin 3.85 GB
Зарубежные сериалы Нулевой взвод / Сектор Зеро / Section Zero (2016) WEBRip [H.264/720p-LQ] (сезон 1, серии 1-8 из 8) SunshineStudio BiOS 3.85 GB

_________________


Последний раз редактировалось: BiOS (2016-11-14 19:46), всего редактировалось 2 раз(а)
[Профиль] [ЛС]

BiOS ®

Стаж: 2 года 7 месяцев

Сообщений: 1732

Откуда: Raccoon City


Пост 15-Ноя-2015 06:36 (спустя 2 дня 2 часа)

[Цитировать]

Хой ЖИВ в наших сердцах!!! Вечная память! 

_________________
[Профиль] [ЛС]
Показать сообщения:    
Ответить на тему

Текущее время: Сегодня 04:06

Часовой пояс: GMT + 4



Вы не можете начинать темы
Вы не можете отвечать на сообщения
Вы не можете редактировать свои сообщения
Вы не можете удалять свои сообщения
Вы не можете голосовать в опросах
Вы не можете прикреплять файлы к сообщениям
Вы можете скачивать файлы