Сектор Газа и Юрий (Хой) Клинских. Концерт в ДК Горбунова 05.07.1996 [1996] VHSRip

Ответить на тему

Статистика раздачи [Обновить пиров]
Размер:  651 MB   |    Зарегистрирован:  1 год   |    Скачан:  3 раза

Сидов:

Пользователь ULR Отдано Скачано Отдача Загрузка
Anonymous 0 - - - -
показаны данные только за текущую сессию
 
 
 
 
Автор Сообщение

BiOS ®

Стаж: 2 года 7 месяцев

Сообщений: 1730

Откуда: Raccoon City


Пост 13-Ноя-2015 03:23

[Цитировать]

Сектор Газа и Юрий (Хой) Клинских. Концерт в ДК Горбунова 05.07.1996 - Страна: Россия
Год выпуска: 1996
Жанр: Концерт / Fusion / Punk-Rock / Rapcore / Hard Rock-Продолжительность: 01:47:34-Описание: «Се́ктор Га́за» — легендарная советская и российская рок-группа, основанная 5 декабря 1987 года в Воронеже музыкантом, вокалистом и автором песен Юрием Клинских, более известным под псевдонимом Хой. 9 июня 1988 года состоялось первое выступление группы в «электрическом» составе в местном рок-клубе при ТЭЦ, там группа получила приз зрительских симпатий. Однако традиционно датой основания группы считается 5 декабря 1987 года, когда состоялось первое сольное выступление Юрия Клинских с репертуаром будущего «Сектор Газа» в воронежском рок-клубе.-Состав: Юрий Клинских — вокал, гитара, клавишные, аранжировка; Ирина Бухарина — бэк-вокал; Игорь Жирнов — лидер-гитара; Вадим Глухов — лидер-гитара-Видео: DivX 5, 700 kbps, 544x400
Аудио: MP3 2.0, 128 kbps-

Треклист

Треклист:
00. Intro
01. Не дает
02. Вдова
03. Проститутка
04. Сельский кайф
05. Из чего же
06. Подвал
07. Взял вину на себя
08. Лирика
09. Тёща
10. Дурак
11. Гуляй, мужик
12. Бомж
13. Мент
14. Носки
15. Давай-давай
16. План
17. Импотент
18. Ява
19. Снегурочка
20. Туман
21. Мак
22. Колхозный панк
23. Возле дома твоего
24. Ядрена вошь
25. Кума
26. Когда помрешь
-

MediaInfo

Код:
Полное имя                               : K:\UpRG-Концерты\Sektor_Gaza.avi
Формат                                   : AVI
Формат/Информация                        : Audio Video Interleave
Размер файла                             : 651 Мбайт
Продолжительность                        : 1 ч. 47 м.
Режим общего битрейта                    : Переменный
Общий поток                              : 846 Кбит/сек
Программа кодирования                    : VirtualDubMod 1.5.10.2 (build 2540/release)
Библиотека кодирования                   : VirtualDubMod build 2540/release
Видео
Идентификатор                            : 0
Формат                                   : MPEG-4 Visual
Параметр BVOP формата                    : 1
Параметр QPel формата                    : Нет
Параметр GMC формата                     : Без точки перехода
Параметр матрицы формата                 : Default (H.263)
Режим смешивания                         : Сжатый битовый поток
Идентификатор кодека                     : DX50
Идентификатор кодека/Подсказка           : DivX 5
Продолжительность                        : 1 ч. 47 м.
Битрейт                                  : 700 Кбит/сек
Ширина                                   : 544 пикселя
Высота                                   : 400 пикселей
Соотношение сторон                       : 4:3
Частота кадров                           : 25,000 кадров/сек
Цветовое пространство                    : YUV
Субдискретизация насыщенности            : 4:2:0
Битовая глубина                          : 8 бит
Тип развёртки                            : Прогрессивная
Метод сжатия                             : С потерями
Бит/(Пиксели*Кадры)                      : 0.129
Размер потока                            : 539 Мбайт (83%)
Библиотека кодирования                   : DivX 6.5.1 (UTC 2007-03)
Аудио
Идентификатор                            : 1
Формат                                   : MPEG Audio
Версия формата                           : Version 1
Профиль формата                          : Layer 3
Режим                                    : Joint stereo
Расширение режима                        : MS Stereo
Идентификатор кодека                     : 55
Идентификатор кодека/Подсказка           : MP3
Продолжительность                        : 1 ч. 47 м.
Вид битрейта                             : Переменный
Битрейт                                  : 128 Кбит/сек
Каналы                                   : 2 канала
Частота                                  : 48,0 КГц
Метод сжатия                             : С потерями
Размер потока                            : 103 Мбайт (16%)
Выравнивание                             : Соединение по промежуткам
Продолжительность промежутка             : 24  мс. (0,60 видеокадр)
Время предзагрузки промежутка            : 479  мс.
Библиотека кодирования                   : LAME3.90.
-Скриншоты:


[trackeroc.ru].9715.torrent 
 ЗОЛОТАЯ РАЗДАЧА! СКАЧАННОЕ НЕ ЗАСЧИТЫВАЕТСЯ! 
Торрент: Зарегистрирован   [ 2015-11-13 03:23 ]

Скачать торрент

13 KB

Статус: проверено
Скачан: 74 раз
Размер: 651 MB
 

Admin (13-ноя-15)
Похожие торренты
Форум Тема Автор Размер
Видео клипы Сектор Газа «Дракула Хой» (2014) MPEG-4 | Тизер BiOS 30 MB
Отечественный Рок, Панк, Метал, Альтернатива Сектор Газа - 13 альбомов (1989-2015) Официальная первотиражная дискография [MP3|320 kbps] BiOS 1.42 GB
Зарубежные сериалы Нулевой взвод / Сектор Зеро / Section Zero (2016) WEBRip (Сезон 1, серии 1-8) Admin 3.85 GB
Зарубежные сериалы Нулевой взвод / Сектор Зеро / Section Zero (2016) WEBRip [H.264/720p-LQ] (сезон 1, серии 1-8 из 8) SunshineStudio BiOS 3.85 GB
Отечественный Рок, Панк, Метал, Альтернатива Юрий Хой и Сектор Газа - Вой на Луну. Лучшее и неизданное (2015) 2CD [FLAC|image + .cue] <Fusion / Punk-Rock / Rapcore / Hard Rock> BiOS 702 MB

_________________
[Профиль] [ЛС]

BiOS ®

Стаж: 2 года 7 месяцев

Сообщений: 1730

Откуда: Raccoon City


Пост 15-Ноя-2015 06:36 (спустя 2 дня 3 часа)

[Цитировать]

Хой ЖИВ в наших сердцах!!! Вечная память! 

_________________
[Профиль] [ЛС]
Показать сообщения:    
Ответить на тему

Текущее время: Сегодня 19:53

Часовой пояс: GMT + 4



Вы не можете начинать темы
Вы не можете отвечать на сообщения
Вы не можете редактировать свои сообщения
Вы не можете удалять свои сообщения
Вы не можете голосовать в опросах
Вы не можете прикреплять файлы к сообщениям
Вы можете скачивать файлы