Сергей Суховей | Как создавать интересные фотографии (2015) PCRec [H.264/1080p]

Ответить на тему

Статистика раздачи [Обновить пиров]
Скачали
Размер:  8.65 GB   |    Зарегистрирован:  1 год   |    Скачан:  4 раза

Полного источника не было: 1 месяц

 
 
 
 
Автор Сообщение

BiOS ®

Стаж: 2 года 7 месяцев

Сообщений: 1730

Откуда: Raccoon City


Пост 19-Ноя-2015 02:43

[Цитировать]

Сергей Суховей | Как создавать интересные фотографии - Автор (режиссер): Сергей Суховей
Жанр: фотография
Описание:
Практический онлайн-тренинг Сергея Суховея. Тренинг состоит из четырех занятий, на которых подробно разбираются все стадии создания интересной, оригинальной фотографии от генерации идеи до постобработки. Вы научитесь придумывать оригинальные идеи и воплощать их в потрясающие фотографии. Как заставить зрителя рассматривать ваши фото, думать о ваших фотографиях и вспоминать их снова и снова? Как делать по-настоящему интересные, необычные снимки? Об этом и много другом вы узнаете на тренинге.
Продолжительность: 10:04:08
Качество видео: PCRec
Видео: AVC/H.264, 1920х1080, ~1 777 Kbps
Аудио: AAC, 2 ch, 125 Kbps

Программа занятий:

День 1:
● Длительность: 2 часа 14 минут.
● Что такое интересная фотография.
● Идея первична, или «что курил автор»?
● Эффект «ВАУ», как его достичь.
● Где черпать идеи.
● Что способствует творчеству.
● Плагиат и оригинальность.
● Как избежать тривиальности.
● Методы генерирования идеи – простые и сложные.
● Как уметь обходиться только тем, что имеешь.
День 2:
● Длительность: 2 часа 48 минут.
● Как найти свою тему.
● Категории зрителей. Ориентация на целевую аудиторию.
● Понятие «квалифицированный зритель».
● Работа с архетипами, символами, знаками.
● Фотография как загадка, требующая решения.
● Намеренное усложнение изображения, «запутывание» сюжета.
● Уровни организации фотографии.
● Сюжет, композиция, свет, перспектива, ракурс, цвет или ЧБ.
День 3:
● Длительность: 2 часа 33 минуты.
● Последовательность работы над проектом.
● Модели. Поиск моделей, работа с моделью.
● Создание эскизов.
● Важные моменты подготовки к съемке.
● Ход съемки.
● Личные наработки.
● Визуальные эффекты без Photoshop.
● Техника, используемая при съемке.
● Анализ распространенных ошибок.
День 4:
● Длительность: 2 часа 27 минут.
● Зачем нужен Photoshop.
● Что стоит делать на съемке, а что в Photoshop.
● Логика и последовательность обработки фотографий.
● Коррекция композиции.
● Усиление глубины и объема изображения. Световые эффекты.
● Основные принципы и приемы в создании коллажа.
● Демонстрация и объяснение на примере нескольких проектов.
● Любимые наработки автора.
● Упрощение и ускорение работы.

Mediainfo:

Код:
General
Format                                   : MPEG-4
Format profile                           : Base Media / Version 2
Codec ID                                 : mp42
File size                                : 1.79 GiB
Duration                                 : 2h 14mn
Overall bit rate mode                    : Variable
Overall bit rate                         : 1 906 Kbps
Encoded date                             : UTC 2015-01-24 12:42:38
Tagged date                              : UTC 2015-01-24 12:43:24
©TIM                                     : 00:00:00:00
©TSC                                     : 30
©TSZ                                     : 1
Video
ID                                       : 1
Format                                   : AVC
Format/Info                              : Advanced Video Codec
Format profile                           : Main@L4.1
Format settings, CABAC                   : Yes
Format settings, ReFrames                : 3 frames
Codec ID                                 : avc1
Codec ID/Info                            : Advanced Video Coding
Duration                                 : 2h 14mn
Bit rate mode                            : Variable
Bit rate                                 : 1 777 Kbps
Maximum bit rate                         : 2 000 Kbps
Width                                    : 1 920 pixels
Height                                   : 1 080 pixels
Display aspect ratio                     : 16:9
Frame rate mode                          : Constant
Frame rate                               : 30.000 fps
Standard                                 : NTSC
Color space                              : YUV
Chroma subsampling                       : 4:2:0
Bit depth                                : 8 bits
Scan type                                : Progressive
Bits/(Pixel*Frame)                       : 0.029
Stream size                              : 1.67 GiB (93%)
Language                                 : English
Encoded date                             : UTC 2015-01-24 12:42:38
Tagged date                              : UTC 2015-01-24 12:42:38
Audio
ID                                       : 2
Format                                   : AAC
Format/Info                              : Advanced Audio Codec
Format profile                           : LC
Codec ID                                 : 40
Duration                                 : 2h 14mn
Source duration                          : 2h 14mn
Bit rate mode                            : Variable
Bit rate                                 : 125 Kbps
Maximum bit rate                         : 207 Kbps
Channel(s)                               : 2 channels
Channel positions                        : Front: L R
Sampling rate                            : 48.0 KHz
Compression mode                         : Lossy
Stream size                              : 121 MiB (7%)
Source stream size                       : 121 MiB (7%)
Language                                 : English
Encoded date                             : UTC 2015-01-24 12:42:38
Tagged date                              : UTC 2015-01-24 12:42:38
-Скриншоты:


[trackeroc.ru].9901.torrent 
Торрент: Зарегистрирован   [ 2015-11-19 02:43 ]

Скачать торрент

25 KB

Статус: проверено
Скачан: 30 раз
Размер: 8.65 GB
 

Admin (19-ноя-15), Angel (20-ноя-15)
Похожие торренты
Форум Тема Автор Размер
Саундтреки к играм World of Tanks OST (Сергей Хмелевский) - 2014, MP3, 320 kbps (Score) BiOS 101 MB
Зарубежные Шенмуе / Shenmue: The Movie (2001) (DVD5) [720p] VO (Сергей Кузнецов) BiOS 3.67 GB

_________________
[Профиль] [ЛС]
Показать сообщения:    
Ответить на тему

Текущее время: Сегодня 22:35

Часовой пояс: GMT + 4



Вы не можете начинать темы
Вы не можете отвечать на сообщения
Вы не можете редактировать свои сообщения
Вы не можете удалять свои сообщения
Вы не можете голосовать в опросах
Вы не можете прикреплять файлы к сообщениям
Вы можете скачивать файлы