Шахта (2010) DVDRip (01-16 из 16)

Ответить на тему

Статистика раздачи [Обновить пиров]
Размер:  7.14 GB   |    Зарегистрирован:  3 месяца 16 дней   |    Скачан:  2 раза

Полного источника не было: 6 дней

 
 
 
 
Автор Сообщение

BiOS ®

Стаж: 2 года 7 месяцев

Сообщений: 1733

Откуда: Raccoon City


Пост 29-Мар-2016 17:30

[Цитировать]

Шахта - Производство: Россия
Жанр: Фантастика, боевик, драма, детектив
Режиссер: Сергей Лесогоров, Владимир Виноградов
Актеры: Илья Носков, Елена Антипова, Александр Баринов, Нина Гогаева, Александр Доронин, Андрей Евдокимов, Дмитрий Ермак, Сергей Марухин, Елена Морозова, Сергей Петров
Описание:
Действие разворачивается в маленьком шахтерском городке на Урале. В советские времена он был «закрытым», так как на шахте добывали уран. Сейчас город немного «приоткрыли», но туда все равно никто, кроме местных, не наведывается. Как и в любом маленьком городке, судьбы его жителей тесно переплетены, а старые дома тщательно хранят свои секреты. Город даже географически находится в некоторой изоляции: с одной стороны полукольцом горы, с другой — река. Мост — единственная дорога.
Леша возвращается со службы по контракту в частях специального назначения. Родной город не сильно изменился с момента его отъезда. Кажется, что в нем ничего не происходит и не может произойти. Но… Как раз в день возвращения Леши происходит страшная авария на шахте. После неё в городе начинают происходить загадочные природные катаклизмы, ставящие героев в чрезвычайно опасные для жизни ситуации. Сгущаются тучи, учащаются грозы без дождя, на город опускается невероятно плотный туман. Когда эти трудности удается преодолеть, жители города обнаруживают, что они в изоляции. Мост перекрыт военными. Берега полностью оцеплены. На солдатах химзащита. Все, что им удаётся выяснить — это одно слово: «Карантин». Горожане выдвигают своим властям ультиматум: С кем вы? С нами или с «ними». Вы все ещё власть, или вы одни из нас, и мы вместе против того, что происходит?
Премьера: 28 ноября 2010
Продолжительность: 07:48:21 (16 серий по ~00:48:00)
Качество видео: DVDRip
Видео: Xvid, 1024х576, ~1200 Кбит/сек
Аудио: MP3, 2 ch, 128 Кбит/сек

MediaInfo

Код:
Общее
Полное имя                       : С:\Shahta.avi
Формат                           : AVI
Формат/Информация                : Audio Video Interleave
Размер файла                     : 455 Мбайт
Продолжительность                : 47 м.
Режим общего битрейта            : Переменный
Общий поток                      : 1337 Кбит/сек
Программа кодирования            : MEncoder r33883
Библиотека кодирования           : MPlayer
Видео
Идентификатор                    : 0
Формат                           : MPEG-4 Visual
Профиль формата                  : Simple@L3
Параметр BVOP формата            : Нет
Параметр QPel формата            : Нет
Параметр GMC формата             : Без точки перехода
Параметр матрицы формата         : Default (H.263)
Идентификатор кодека             : XVID
Идентификатор кодека/Подсказка   : XviD
Продолжительность                : 47 м.
Битрейт                          : 1200 Кбит/сек
Ширина                           : 1024 пикселя
Высота                           : 576 пикселей
Соотношение сторон               : 16:9
Частота кадров                   : 25,000 кадров/сек
Цветовое пространство            : YUV
Субдискретизация насыщенности    : 4:2:0
Битовая глубина                  : 8 бит
Тип развёртки                    : Прогрессивная
Метод сжатия                     : С потерями
Бит/(Пиксели*Кадры)              : 0.081
Размер потока                    : 408 Мбайт (90%)
Библиотека кодирования           : XviD 63
Аудио
Идентификатор                    : 1
Формат                           : MPEG Audio
Версия формата                   : Version 1
Профиль формата                  : Layer 3
Режим                            : Joint stereo
Расширение режима                : MS Stereo
Идентификатор кодека             : 55
Идентификатор кодека/Подсказка   : MP3
Продолжительность                : 47 м.
Вид битрейта                     : Переменный
Битрейт                          : 124 Кбит/сек
Каналы                           : 2 канала
Частота                          : 44,1 КГц
Метод сжатия                     : С потерями
Размер потока                    : 42,3 Мбайт (9%)
Выравнивание                     : Соединение по промежуткам
Продолжительность промежутка     : 26  мс. (0,65 видеокадр)
Время предзагрузки промежутка    : 496  мс.

Дополнительно

При перепаковке из оригинального DVD в AVI (XviD), было применено два кодирования, двумя разными программами (кодировщиками).
-Скриншоты:


Смотреть онлайн

[trackeroc.ru].12327.torrent 
Торрент: Зарегистрирован   [ 2016-08-19 16:38 ]

Скачать торрент

20 KB

Статус: проверено
Скачан: 20 раз
Размер: 7.14 GB
 

Admin (29-мар-16)
Похожие торренты
Форум Тема Автор Размер
Ужасы мистика триллеры Маскарад / Создатель масок / Maskerade / Mask Maker (2010) BDRip [H.264/1080p-LQ] BiOS 4.35 GB
Российские сериалы Штрафбат (2004) DVDRip [H.264] (серии 1-11 из 11) BiOS 7.67 GB
Сasual games, Тайм менеджмент Ski Resort Mogul / Магнат Куршевеля [P] [RUS] (2010) HOPE 65 MB
Зарубежные Мультсериалы Визионеры - Рыцари Магического Света / Visionaries - Knights Of The Magical Light (1987) DVDRip (Сезоны 1, серий 1-13 из 13) BiOS 2.49 GB
Shooter шутеры стрелялки NecrovisioN Lost Company / NecrovisioN Проклятая Рота (2010) [Ru] (1.1) SteamRip Let'sPlay BiOS 2.98 GB

_________________
[Профиль] [ЛС]
Показать сообщения:    
Ответить на тему

Текущее время: Сегодня 02:17

Часовой пояс: GMT + 4



Вы не можете начинать темы
Вы не можете отвечать на сообщения
Вы не можете редактировать свои сообщения
Вы не можете удалять свои сообщения
Вы не можете голосовать в опросах
Вы не можете прикреплять файлы к сообщениям
Вы можете скачивать файлы