Шаманка [серии 1-20 из 20] (Анна Богуславская) [2015, детектив, криминал, SATRip]

Ответить на тему

Статистика раздачи [Обновить пиров]
Размер:  11.64 GB   |    Зарегистрирован:  1 год 1 месяц   |    Скачан:  2 раза

Полного источника не было: 1 месяц 28 дней

 
 
 
 
Автор Сообщение

Матвей ®

Стаж: 1 год 2 месяца

Сообщений: 236

Откуда: Челябинск


Пост 15-Окт-2015 12:41

[Цитировать]

Шаманка -- Производство: Россия, Студия "Панорама"
Жанр: детектив, криминал
Режиссер: Анна Богуславская
Актеры: Инна Коляда, Андрей Казаков, Елена Драпеко, Алексей Винников, Андрей Перович, Юрий Архангельский, Андрей Мокеев, Максим Пономарев, Юлия Гришаева, Геннадий Смирнов, Тимофей Гаврилов, Евгения Латонина, Андрей Павловец, Елена Никонорова, Павел Миронов и др.
Описание:
Преуспевающий кредитный консультант коммерческого банка Марина Белозёрова после гибели жениха Эрика не находит себе места от горя и безысходности. Очнувшись от мрачного забытья, Марина вспоминает свою встречу с начальником отдела по раскрытию умышленных убийств Владимиром Уваровым, с которым она случайно познакомилась в салоне самолёта. В тот раз Белозёрова спасла всех пассажиров и членов экипажа, вовремя заметив, что пилот находится в прединсультном состоянии. Под впечатлением от невероятной прозорливости и острого ума Марины, Уваров сразу же предложил ей работу в полиции, и теперь она решает принять его предложение, чтобы найти убийцу своего возлюбленного…
КиноПоиск
SAMPLE
Дата российской премьеры: 24 августа 2015
Продолжительность: ~ 00:42:00 серия
Качество видео: SATRip
Видео: AVC/H.264, 720x400, ~ 1700 Кбит/с
Аудио: AC3, 2 ch, 192 Кбит/с

Mediainfo:

Код:
Общее
Уникальный идентификатор : 209757688591922643550087935367743495676 (0x9DCDDC819855CC1F9374F95784435DFC)
Полное имя : E:\Шаманка\01 серия.mkv
Формат : Matroska
Версия формата : Version 2
Размер файла : 578 Мбайт
Продолжительность : 42 м.
Общий поток : 1894 Кбит/сек
Дата кодирования : UTC 2015-05-24 05:24:48
Программа кодирования : mkvmerge v5.8.0 ('No Sleep / Pillow') built on Sep 2 2012 15:37:04
Библиотека кодирования : libebml v1.2.3 + libmatroska v1.3.0
Видео
Идентификатор : 1
Формат : AVC
Формат/Информация : Advanced Video Codec
Профиль формата : [url=mailto:High@L3.1]High@L3.1[/url]
Параметр CABAC формата : Да
Параметр ReFrames формата : 9 кадров
Идентификатор кодека : V_MPEG4/ISO/AVC
Продолжительность : 42 м.
Битрейт : 1700 Кбит/сек
Ширина : 704 пикселя
Высота : 400 пикселей
Соотношение сторон : 16:9
Режим частоты кадров : Постоянный
Частота кадров : 25,000 кадров/сек
Цветовое пространство : YUV
Субдискретизация насыщенности : 4:2:0
Битовая глубина : 8 бит
Тип развёртки : Прогрессивная
Бит/(Пиксели*Кадры) : 0.241
Размер потока : 508 Мбайт (88%)
Библиотека кодирования : x264 core 144 r2525 40bb568
Настройки программы : cabac=1 / ref=9 / deblock=1:-3:-3 / analyse=0x3:0x113 / me=umh / subme=9 / psy=1 / psy_rd=1.00:0.02 / mixed_ref=1 / me_range=32 / chroma_me=0 / trellis=1 / 8x8dct=1 / cqm=0 / deadzone=21,11 / fast_pskip=1 / chroma_qp_offset=-3 / threads=6 / lookahead_threads=1 / sliced_threads=0 / nr=0 / decimate=0 / interlaced=0 / bluray_compat=0 / constrained_intra=0 / bframes=9 / b_pyramid=2 / b_adapt=1 / b_bias=0 / direct=3 / weightb=1 / open_gop=0 / weightp=2 / keyint=240 / keyint_min=25 / scenecut=40 / intra_refresh=0 / rc_lookahead=40 / rc=2pass / mbtree=1 / bitrate=1700 / ratetol=1.0 / qcomp=0.60 / qpmin=0 / qpmax=69 / qpstep=4 / cplxblur=20.0 / qblur=0.5 / ip_ratio=1.40 / aq=1:1.00
Default : Да
Forced : Нет
colour_range : Limited
Основные цвета : BT.601 PAL
Характеристики трансфера : BT.470 System B, BT.470 System G
Коэффициенты матрицы : BT.601
Аудио
Идентификатор : 2
Формат : AC-3
Формат/Информация : Audio Coding 3
Расширение режима : CM (complete main)
Параметр Endianness формата : Big
Идентификатор кодека : A_AC3
Продолжительность : 42 м.
Вид битрейта : Постоянный
Битрейт : 192 Кбит/сек
Каналы : 2 канала
Расположение каналов : Front: L R
Частота : 48,0 КГц
Битовая глубина : 16 бит
Метод сжатия : С потерями
Размер потока : 58,6 Мбайт (10%)
Default : Да
Forced : Нет

Скриншоты:



Смотреть онлайн

[trackeroc.ru].8811.torrent 
Торрент: Зарегистрирован   [ 2015-10-15 12:41 ]

Скачать торрент

60 KB

Статус: проверено
Скачан: 12 раз
Размер: 11.64 GB
 

Похожие торренты
Форум Тема Автор Размер
Зарубежные сериалы Бесстыжие / Shameless (US) (2016) HDTVRip (сезон 7, серии 1-10 из 12) Admin 6.35 GB
Зарубежные сериалы Вне времени / Timeless (2016) WEB-DLRip (сезон 1, серии 1-9 из 13) BiOS 3.62 GB
Зарубежные сериалы Последний человек на Земле / The Last Man on Earth / Сезон: 3 / Серии: 1-7 из 20 Admin 1.38 GB
Зарубежные сериалы Супердевушка / Supergirl (2016) (Сезон 2, серии 1-8 из 22) Admin 3.91 GB
Зарубежные сериалы Нация Z / Z Nation /Сезон: 3 / Серии: 1-13 из 14 Admin 6.35 GB

_________________

[Профиль] [ЛС]
Показать сообщения:    
Ответить на тему

Текущее время: Сегодня 02:06

Часовой пояс: GMT + 4



Вы не можете начинать темы
Вы не можете отвечать на сообщения
Вы не можете редактировать свои сообщения
Вы не можете удалять свои сообщения
Вы не можете голосовать в опросах
Вы не можете прикреплять файлы к сообщениям
Вы можете скачивать файлы