Шенмуе / Shenmue: The Movie (2001) DVDRip [x264]

Ответить на тему

Статистика раздачи [Обновить пиров]
Размер:  998 MB   |    Зарегистрирован:  8 дней   |    Скачан:  1 раз

Полного источника не было: 55 минут

 
   
 
 
 
Автор Сообщение

BiOS ®

Стаж: 2 года 11 месяцев

Сообщений: 1896

Откуда: Raccoon City


Пост 18-Июл-2015 14:04

[Цитировать]

Шенмуе / Shenmue: The Movie - Производство: Япония
Жанр: Анимация, Боевик, Боевые искусства, Приключения
Режиссер: Yu Suzuki
Актеры: Corey Marshall, Paul Lucas, Robert Jefferson, Ruth Hollyman, Ryan Drees и д.р.
Описание:
Рио Хазуки пытается разыскать человека, ответственного за смерть его отца.
Shenmue: The Movie — фильм, включающий в себя кат-сцены из игры Shenmue. Продолжительностью 90 минут, изначально он был выпущен только в Японии 20 января 2001 года, но позже фильм вошёл в комплект с игрой Shenmue II для консоли Xbox.
Фильм в значительной степени имеет связь с первой частью Shenmue и использует ролики из игры, а также несколько новых, чтобы связать игру и фильм вместе.
Shenmue фильм стартовал 20 января 2001 года в ряду некоторых кинотеатров в Японии, и в основном состоял из подредактированых графических заставок на движке игры. Позднее, он вышел на dvd. Dvd-релиз был доступен только в Японии до тех пор, пока не вышла версия для Хбокса Shenmue 2 в комплекте к которой был предоставлен бесплатный бонус диск содержащий этот фильм.
Дата мировой премьеры: 20 января 2001
Рейтинг MPAA: PG-13 (детям до 13 лет просмотр нежелателен)
Продолжительность: 01:30:00
Качество видео: DVDRip
Перевод: Любительский (одноголосый, закадровый) Сергей Кузнецов
Субтитры: Отсутствуют
Реклама: Отсутствует
Видео: MPEG4, AVC, 720x544, ~1407 Kbps
Аудио: AAC, 48,0 KHz, 2 ch, 154 Kbps

Mediainfo:

Код:
Общее
Формат : MPEG-4
Профиль формата : Base Media
Идентификатор кодека : isom (isom/avc1/iso6)
Размер файла : 998 Мбайт
Продолжительность : 1 ч. 29 м.
Режим общего битрейта : Переменный
Общий поток : 1565 Кбит/сек
Дата кодирования : UTC 2017-03-16 22:43:19
Дата пометки : UTC 2017-03-16 22:43:19
Видео
Идентификатор : 1
Формат : AVC
Формат/Информация : Advanced Video Codec
Профиль формата : High@L3.1
Параметр CABAC формата : Да
Параметр ReFrames формата : 8 кадров
Идентификатор кодека : avc1
Идентификатор кодека/Информация : Advanced Video Coding
Продолжительность : 1 ч. 29 м.
Битрейт : 1407 Кбит/сек
Максимальный битрейт : 5561 Кбит/сек
Ширина : 720 пикселей
Высота : 544 пикселя
Соотношение сторон : 4:3
Режим частоты кадров : Постоянный
Частота кадров : 29,970 (30000/1001) кадров/сек
Цветовое пространство : YUV
Субдискретизация насыщенности : 4:2:0
Битовая глубина : 8 бит
Тип развёртки : Прогрессивная
Бит/(Пиксели*Кадры) : 0.120
Размер потока : 897 Мбайт (90%)
Заголовок : 264@GPAC0.5.2-DEV-rev248-g39d5978-master
Библиотека кодирования : x264 core 146 r2538 121396c
Настройки программы : cabac=1 / ref=8 / deblock=1:-1:-1 / analyse=0x3:0x113 / me=umh / subme=7 / psy=1 / psy_rd=1.00:0.20 / mixed_ref=1 / me_range=16 / chroma_me=1 / trellis=2 / 8x8dct=1 / cqm=0 / deadzone=21,11 / fast_pskip=0 / chroma_qp_offset=-3 / threads=6 / lookahead_threads=1 / sliced_threads=0 / nr=0 / decimate=0 / interlaced=0 / bluray_compat=0 / constrained_intra=0 / bframes=3 / b_pyramid=2 / b_adapt=2 / b_bias=0 / direct=3 / weightb=1 / open_gop=0 / weightp=2 / keyint=250 / keyint_min=25 / scenecut=40 / intra_refresh=0 / rc_lookahead=50 / rc=2pass / mbtree=1 / bitrate=1407 / ratetol=1.0 / qcomp=0.60 / qpmin=0 / qpmax=69 / qpstep=4 / cplxblur=20.0 / qblur=0.5 / vbv_maxrate=14000 / vbv_bufsize=14000 / nal_hrd=none / filler=0 / ip_ratio=1.40 / aq=1:1.00
Дата кодирования : UTC 2017-03-16 22:43:19
Дата пометки : UTC 2017-03-16 22:43:48
Аудио
Идентификатор : 2
Формат : AAC
Формат/Информация : Advanced Audio Codec
Профиль формата : LC
Идентификатор кодека : 40
Продолжительность : 1 ч. 29 м.
Вид битрейта : Переменный
Битрейт : 154 Кбит/сек
Максимальный битрейт : 175 Кбит/сек
Каналы : 2 канала
Расположение каналов : Front: L R
Частота : 48,0 КГц
Частота кадров : 46,875 кадров/сек (1024 spf)
Метод сжатия : С потерями
Размер потока : 98,1 Мбайт (10%)
Дата кодирования : UTC 2017-03-16 21:25:55
Дата пометки : UTC 2017-03-16 22:43:48
-Скриншоты:


Смотреть онлайн


[trackeroc.ru].7086.torrent 
Торрент: Зарегистрирован   [ 2017-03-17 05:30 ]

Скачать торрент

20 KB

Статус: проверено
Скачан: 26 раз
Размер: 998 MB
 

Angel (20-ноя-15), Admin (17-мар-17)
Похожие торренты
Форум Тема Автор Размер
Старые игры для PC до 2005 года Shenmue 2 [Ru/En] (RePack/Emul) 2001 | MarkusEVO BiOS 1.52 GB
Старые игры для PC до 2005 года Shenmue [Ru/En] (RePack/Emul) 1999 | MarkusEVO BiOS 1.11 GB
XBox 360E | Игры Shenmue 2 (2003) [PAL] [ENG] [DVD9] [XBox360Е] BiOS 6.92 GB
Dreamcast - Игры Shenmue 2 (2001) (SEGA) [PAL/RUS-ENG] [Vector] [Dreamcast] BiOS 3 GB


Последний раз редактировалось: BiOS (Вчера 11:42), всего редактировалось 1 раз
[Профиль] [ЛС]

BiOS ®

Стаж: 2 года 11 месяцев

Сообщений: 1896

Откуда: Raccoon City


Пост 17-Мар-2017 05:33 (спустя 1 год 7 месяцев)

[Цитировать]

Торрент-файл перезалит, просьба перекачать/перехешировать с уже скачанным заново !!! 
[Профиль] [ЛС]
Показать сообщения:    
Ответить на тему

Текущее время: Сегодня 11:50

Часовой пояс: GMT + 4



Вы не можете начинать темы
Вы не можете отвечать на сообщения
Вы не можете редактировать свои сообщения
Вы не можете удалять свои сообщения
Вы не можете голосовать в опросах
Вы не можете прикреплять файлы к сообщениям
Вы можете скачивать файлы