Шенмуе / Shenmue: The Movie (2001) DVDRip

Ответить на тему

Статистика раздачи [Обновить пиров]
Размер:  2.23 GB   |    Зарегистрирован:  25 дней   |    Скачан:  0 раз

Полного источника не было: 12 дней

 
 
 
 
Автор Сообщение

BiOS ®

Стаж: 2 года 10 месяцев

Сообщений: 1865

Откуда: Raccoon City


Пост 18-Июл-2015 14:04

[Цитировать]

Шенмуе / Shenmue: The Movie - Производство: Япония
Жанр: Анимация, Боевик, Боевые искусства, Приключения
Режиссер: Yu Suzuki
Актеры: Corey Marshall, Paul Lucas, Robert Jefferson, Ruth Hollyman, Ryan Drees и д.р.
Описание:
Рио Хазуки пытается разыскать человека, ответственного за смерть его отца.
Shenmue: The Movie — фильм, включающий в себя кат-сцены из игры Shenmue. Продолжительностью 90 минут, изначально он был выпущен только в Японии 20 января 2001 года, но позже фильм вошёл в комплект с игрой Shenmue II для консоли Xbox.
Фильм в значительной степени имеет связь с первой частью Shenmue и использует ролики из игры, а также несколько новых, чтобы связать игру и фильм вместе.
Shenmue фильм стартовал 20 января 2001 года в ряду некоторых кинотеатров в Японии, и в основном состоял из подредактированых графических заставок на движке игры. Позднее, он вышел на dvd. Dvd-релиз был доступен только в Японии до тех пор, пока не вышла версия для Хбокса Shenmue 2 в комплекте к которой был предоставлен бесплатный бонус диск содержащий этот фильм.
Дата мировой премьеры: 20 января 2001
Рейтинг MPAA: PG-13 (детям до 13 лет просмотр нежелателен)
Продолжительность: 01:30:00
Качество видео: DVDRip
Перевод: Любительский (одноголосый, закадровый) Сергей Кузнецов
Субтитры: Отсутствуют
Реклама: Отсутствует
Видео: MPEG4, XviD, 720x480, 29,970 fps, 3487 Kbps
Аудио: AAC, 44,1 KHz, 2 ch, 96,0 Kbps, CBR

Mediainfo:

Код:
Общее
Полное имя : D:\µTorrent\Shenmue The Movie (2001) DVDRip.mp4
Формат : MPEG-4
Профиль формата : Base Media
Идентификатор кодека : isom (isom/iso2/mp41)
Размер файла : 2,23 Гбайт
Продолжительность : 1 ч. 29 м.
Режим общего битрейта : Переменный
Общий поток : 3590 Кбит/сек
Программа кодирования : Lavf56.15.102
Видео
Идентификатор : 1
Формат : MPEG-4 Visual
Профиль формата : Simple@L1
Параметр BVOP формата : Нет
Параметр QPel формата : Нет
Параметр GMC формата : Без точки перехода
Параметр матрицы формата : Default (H.263)
Идентификатор кодека : 20
Продолжительность : 1 ч. 29 м.
Вид битрейта : Переменный
Битрейт : 3487 Кбит/сек
Максимальный битрейт : 5000 Кбит/сек
Ширина : 720 пикселей
Высота : 480 пикселей
Соотношение сторон : 3:2
Режим частоты кадров : Постоянный
Частота кадров : 29,970 (29970/1000) кадров/сек
Стандарт вещания : NTSC
Цветовое пространство : YUV
Субдискретизация насыщенности : 4:2:0
Битовая глубина : 8 бит
Тип развёртки : Прогрессивная
Метод сжатия : С потерями
Бит/(Пиксели*Кадры) : 0.337
Размер потока : 2,17 Гбайт (97%)
Библиотека кодирования : Lavc56.13.100
Аудио
Идентификатор : 2
Формат : AAC
Формат/Информация : Advanced Audio Codec
Профиль формата : LC
Идентификатор кодека : 40
Продолжительность : 1 ч. 29 м.
Вид битрейта : Постоянный
Битрейт : 96,0 Кбит/сек
Каналы : 2 канала
Расположение каналов : Front: L R
Частота : 44,1 КГц
Частота кадров : 43,066 кадра/сек (1024 spf)
Метод сжатия : С потерями
Размер потока : 61,1 Мбайт (3%)
Default : Да
Alternate group : 1
-Скриншоты:


Смотреть онлайн


[trackeroc.ru].7086.torrent 
 СЕРЕБРЯНАЯ РАЗДАЧА! СКАЧАННОЕ ЗАСЧИТЫВАЕТСЯ ТОЛЬКО НАПОЛОВИНУ! 
Торрент: Зарегистрирован   [ 2017-02-01 06:27 ]

Скачать торрент

12 KB

Статус: проверено
Скачан: 22 раз
Размер: 2.23 GB
 

Angel (20-ноя-15)
Похожие торренты
Форум Тема Автор Размер
Старые игры для PC до 2005 года Shenmue 2 [Ru/En] (RePack/Emul) 2001 | MarkusEVO BiOS 1.52 GB
Старые игры для PC до 2005 года Shenmue [Ru/En] (RePack/Emul) 1999 | MarkusEVO BiOS 1.11 GB
XBox 360E | Игры Shenmue 2 (2003) [PAL] [ENG] [DVD9] [XBox360Е] BiOS 6.92 GB
Dreamcast - Игры Shenmue 2 (2001) (SEGA) [PAL/RUS-ENG] [Vector] [Dreamcast] BiOS 3 GB

_________________
[Профиль] [ЛС]
Показать сообщения:    
Ответить на тему

Текущее время: Сегодня 16:16

Часовой пояс: GMT + 4



Вы не можете начинать темы
Вы не можете отвечать на сообщения
Вы не можете редактировать свои сообщения
Вы не можете удалять свои сообщения
Вы не можете голосовать в опросах
Вы не можете прикреплять файлы к сообщениям
Вы можете скачивать файлы