Шокирующая темнота / Shocking Dark (1989) DVDRemux

Ответить на тему

Статистика раздачи [Обновить пиров]
Размер:  3.78 GB   |    Зарегистрирован:  1 год   |    Скачан:  3 раза

Полного источника не было: 9 месяцев 13 дней

 
 
 
 
Автор Сообщение

BiOS ®

Стаж: 2 года 7 месяцев

Сообщений: 1738

Откуда: Raccoon City


Пост 14-Ноя-2015 21:32

[Цитировать]

Шокирующая темнота / Shocking Dark - Производство: Италия
Жанр: Фантастика, Боевик
Режиссер: Бруно Маттеи
Актеры: Кристофер Аренс, Хэвен Тайлер, Фаусто Ломбарди, Доминика Кулсон, Пол Норман Аллен, Ричард Росс
Описание:
Будущее. Венеция подвергается химическому заражению. Специализированный отряд военных отправляется в подземелья и тоннели города с целью отыскания всех возможных живых и спасения их от химической угрозы и возникших в результате неё мутировавших монстров.
Продолжительность: 01:29:45
Качество видео: DVDRemux (DVD5 перепакован в MPG)
Перевод: Авторский (одноголосый, закадровый) В.Котов
Язык субтитров: Китайский
Вид субтитров: Вшитые неотключаемые
Видео: MPEG-2, 720x480@640х480, ~5786 Kbps
Аудио: MP3, 2 ch, 128 Kbps
Семпл: Скачать

Mediainfo:

Код:
General
Complete name               : C:\Users\Шокирующая темнота-1990 (VHS-DVDRemux В. Котов).mpg
Format                      : MPEG-PS
File size                   : 3.78 GiB
Duration                    : 1h 29mn
Overall bit rate mode       : Variable
Overall bit rate            : 6 034 Kbps
Writing library             : (dvd5: Oct 19 2015)
Video
ID                          : 224 (0xE0)
Format                      : MPEG Video
Format version              : Version 2
Format profile              : Main@Main
Format settings, BVOP       : Yes
Format settings, Matrix     : Default
Format settings, GOP        : Variable
Format settings, picture st : Frame
Duration                    : 1h 29mn
Bit rate mode               : Variable
Bit rate                    : 5 786 Kbps
Maximum bit rate            : 9 400 Kbps
Width                       : 720 pixels
Height                      : 480 pixels
Display aspect ratio        : 4:3
Frame rate                  : 29.970 fps
Standard                    : NTSC
Color space                 : YUV
Chroma subsampling          : 4:2:0
Bit depth                   : 8 bits
Scan type                   : Interlaced
Scan order                  : Top Field First
Compression mode            : Lossy
Bits/(Pixel*Frame)          : 0.559
Time code of first frame    : 00:00:00:00
Time code source            : Group of pictures header
GOP, Open/Closed            : Open
GOP, Open/Closed of first f : Closed
Stream size                 : 3.63 GiB (96%)
Writing library             : (dvd5: Oct 19 2015)
Color primaries             : BT.601 NTSC
Transfer characteristics    : BT.601
Matrix coefficients         : BT.601
Audio
ID                          : 192 (0xC0)
Format                      : MPEG Audio
Format version              : Version 1
Format profile              : Layer 3
Mode                        : Joint stereo
Mode extension              : MS Stereo
Duration                    : 1h 29mn
Bit rate mode               : Constant
Bit rate                    : 128 Kbps
Channel(s)                  : 2 channels
Sampling rate               : 48.0 KHz
Compression mode            : Lossy
Stream size                 : 82.2 MiB (2%)
Menu
-Скриншоты:


Смотреть онлайн

[trackeroc.ru].9775.torrent 
Торрент: Зарегистрирован   [ 2015-11-14 21:32 ]

Скачать торрент

39 KB

Статус: проверено
Скачан: 15 раз
Размер: 3.78 GB
 

Admin (14-ноя-15), Angel (16-ноя-15)
Похожие торренты
Форум Тема Автор Размер
Квесты , я ищу , Поиск предметов Hidden Object Witches' Legacy 5: Slumbering Darkness CE /Наследие ведьм 5. Дремлющая темнота (2015) (Big Fish Games) (RUS) [P] HOPE 990 MB
Квесты , я ищу , Поиск предметов Hidden Object Shadowplay: Darkness Incarnate Collector's Edition / Игра теней: Восставшая Темнота Коллекционное издание [P] [RUS / ENG] (2016) HOPE 626 MB
Ужасы мистика триллеры Темнота / The Darkness [2016, WEBRip-AVC] Admin 1.38 GB
Ужасы мистика триллеры Темнота / Dark (2015) WEB-DLRip Admin 1.46 GB

_________________
[Профиль] [ЛС]
Показать сообщения:    
Ответить на тему

Текущее время: Сегодня 02:09

Часовой пояс: GMT + 4



Вы не можете начинать темы
Вы не можете отвечать на сообщения
Вы не можете редактировать свои сообщения
Вы не можете удалять свои сообщения
Вы не можете голосовать в опросах
Вы не можете прикреплять файлы к сообщениям
Вы можете скачивать файлы