Симпсоны / The Simpsons (2015) WEB-DLRip (27 сезон, 1-22 серия из 22) JetvisStudio

Ответить на тему

Статистика раздачи [Обновить пиров]
Размер:  5.54 GB   |    Зарегистрирован:  5 месяцев 11 дней   |    Скачан:  1 раз

Полного источника не было: 1 месяц 24 дня

 
 
 
 
Автор Сообщение

Admin ®

Стаж: 7 месяцев 15 дней

Сообщений: 4460

Откуда: trackeroc.ru


Пост 24-Янв-2016 17:47

[Цитировать]

Симпсоны / The Simpsons «Just a product of society that's lost its good manners»- Год выпуска: 2015
Жанр: Мультфильм, комедия, сериал
Описание:
Мультфильм - пародия на американский уклад жизни. Cемейство Симпсонов состоит из пяти членов: папаша Гомер, мать семейства Мардж, их дочери Лиза и Мэгги и несносный подросток Барт.
Режиссеры:
Марк Керклэнд, Стивен Дин Мур, Боб Андерсон и др.
Сценарий:
Джеймс Л. Брукс, Мэтт Грейнинг, Сэм Саймон и др.
Роли озвучивали:
Дэн Кастелланета, Джули Кавнер, Нэнси Картрайт, Ярдли Смит, Гарри Ширер, Хэнк Азария, Памела Хейден, Тресс МакНилл, Карл Видерготт, Мэгги Росвэл и др.
Продолжительность: 22 х ~00:22:00
Качество видео: WEB-DLRip
Перевод: Профессиональный (двуголосый закадровый), (JetvisStudio)
Субтитры: есть
Видео: AVC/H.264, 1280x720, ~1500 Кбит/сек
Аудио: AC-3, 2 ch, 192 kbps, VBR

Список серий:

* Every Man's Dream
* Cue Detective
* Puffless
* Halloween of Horror
* Treehouse of Horror XXVI
* Friend with Benefit
* Lisa with an
* Paths of Glory
* Barthood
* The Girl Code
* Teenage Mutant Milk-Caused Hurdle
* Much Apu About Something
* Love Is in the N2-O2-Ar-CO2-Ne-He-CH4
* Gal of Constant Sorrow
* Lisa the Veterinarian
* The Marge-ian Chronicles
* The Burns Cage
* How Lisa Got Her Marge Back
* Fland Canyon
* To Courier with Love
* Simprovised
* Orange is the New Yellow

MediaInfo

Код:
Формат                                   : Matroska
Версия формата                           : Version 4 / Version 2
Размер файла                             : 261 Мбайт
Продолжительность                        : 21 м.
Общий поток                              : 1694 Кбит/сек
Дата кодирования                         : UTC 2015-09-28 15:01:28
Программа кодирования                    : mkvmerge v8.1.0 ('Psychedelic Postcard') 64bit
Библиотека кодирования                   : libebml v1.3.1 + libmatroska v1.4.2
Видео
Идентификатор                            : 1
Формат                                   : AVC
Формат/Информация                        : Advanced Video Codec
Профиль формата                          : High@L4.1
Параметр CABAC формата                   : Да
Параметр ReFrames формата                : 3 кадра
Идентификатор кодека                     : V_MPEG4/ISO/AVC
Продолжительность                        : 21 м.
Битрейт                                  : 1500 Кбит/сек
Ширина                                   : 1280 пикселей
Высота                                   : 720 пикселей
Соотношение сторон                       : 16:9
Режим частоты кадров                     : Постоянный
Частота кадров                           : 23,976 кадра/сек
Цветовое пространство                    : YUV
Субдискретизация насыщенности            : 4:2:0
Битовая глубина                          : 8 бит
Тип развёртки                            : Прогрессивная
Бит/(Пиксели*Кадры)                      : 0.068
Размер потока                            : 226 Мбайт (87%)
Библиотека кодирования                   : x264 core 116 r2019M 9cc407d
Настройки программы                      : cabac=1 / ref=3 / deblock=1:0:0 / analyse=0x3:0x133 / me=hex / subme=7 / psy=1 / psy_rd=1.00:0.20 / mixed_ref=1 / me_range=16 / chroma_me=1 / trellis=1 / 8x8dct=1 / cqm=0 / deadzone=21,11 / fast_pskip=1 / chroma_qp_offset=-3 / threads=8 / sliced_threads=0 / nr=0 / decimate=1 / interlaced=0 / bluray_compat=0 / constrained_intra=0 / bframes=3 / b_pyramid=1 / b_adapt=2 / b_bias=0 / direct=3 / weightb=1 / open_gop=0 / weightp=2 / keyint=230 / keyint_min=23 / scenecut=40 / intra_refresh=0 / rc_lookahead=40 / rc=2pass / mbtree=1 / bitrate=1500 / ratetol=1.0 / qcomp=0.60 / qpmin=10 / qpmax=51 / qpstep=4 / cplxblur=20.0 / qblur=0.5 / ip_ratio=1.40 / aq=1:1.00
Default                                  : Да
Forced                                   : Нет
DURATION                                 : 00:21:32.458000000
NUMBER_OF_FRAMES                         : 30988
NUMBER_OF_BYTES                          : 242392000
_STATISTICS_WRITING_APP                  : mkvmerge v8.1.0 ('Psychedelic Postcard') 64bit
_STATISTICS_WRITING_DATE_UTC             : 2015-09-28 15:01:28
_STATISTICS_TAGS                         : BPS DURATION NUMBER_OF_FRAMES NUMBER_OF_BYTES
Аудио
Идентификатор                            : 2
Формат                                   : AC-3
Формат/Информация                        : Audio Coding 3
Расширение режима                        : CM (complete main)
Параметр Endianness формата              : Big
Идентификатор кодека                     : A_AC3
Продолжительность                        : 21 м.
Вид битрейта                             : Постоянный
Битрейт                                  : 192 Кбит/сек
Каналы                                   : 2 канала
Расположение каналов                     : Front: L R
Частота                                  : 48,0 КГц
Метод сжатия                             : С потерями
Размер потока                            : 29,6 Мбайт (11%)
Default                                  : Да
Forced                                   : Нет
DURATION                                 : 00:21:32.388000000
NUMBER_OF_FRAMES                         : 40385
NUMBER_OF_BYTES                          : 31015680
_STATISTICS_WRITING_APP                  : mkvmerge v8.1.0 ('Psychedelic Postcard') 64bit
_STATISTICS_WRITING_DATE_UTC             : 2015-09-28 15:01:28
_STATISTICS_TAGS                         : BPS DURATION NUMBER_OF_FRAMES NUMBER_OF_BYTES
-Скриншоты:


Смотреть онлайн

[trackeroc.ru].11247.torrent 
 ЗОЛОТАЯ РАЗДАЧА! СКАЧАННОЕ НЕ ЗАСЧИТЫВАЕТСЯ! 
Торрент: Зарегистрирован   [ 2016-06-28 22:40 ]

Скачать торрент

16 KB

Статус: проверено
Скачан: 18 раз
Размер: 5.54 GB
 

BiOS (18-июн-16)
Похожие торренты
Форум Тема Автор Размер
Зарубежные Мультсериалы Симпсоны / The Simpsons (2016) WEB-DL (сезон 28, серии 1-2 из 22) OmskBird BiOS 1.49 GB
Зарубежные Мультсериалы Симпсоны / The Simpsons + Симпсоны на Шоу Трейси Ульман / Simpsons The Tracey Ullman Shorts (1987-2015) TVRip / WEB-DLRip (1-26 сезон, 1-554 серия из 554) BiOS 141.14 GB

_________________
[Профиль] [ЛС]
Показать сообщения:    
Ответить на тему

Текущее время: Сегодня 14:41

Часовой пояс: GMT + 4



Вы не можете начинать темы
Вы не можете отвечать на сообщения
Вы не можете редактировать свои сообщения
Вы не можете удалять свои сообщения
Вы не можете голосовать в опросах
Вы не можете прикреплять файлы к сообщениям
Вы можете скачивать файлы