Сингулярность / Singularity (2017) WEB-DLRip [H.264/1080p-LQ] [MVO] [AD] скачать торрент

Ответить на тему

Статистика раздачи [Обновить пиров]
Размер:  3.43 GB   |    Зарегистрирован:  1 месяц 11 дней   |    Скачан:  4 раза

Полного источника не было: 13 дней

 
   
 
 
 
Автор Сообщение

BiOS ®

Стаж: 3 года 7 месяцев

Сообщений: 2024

Откуда: Raccoon City


Пост 05-Ноя-2017 19:11

[Цитировать]

Сингулярность / Singularity - Производство: Швейцария, США
Жанр: Фантастика
Режиссер: Роберт Коуба
Продюсер: Себастьян Сепеда, Роберт Коуба, Джордж Бенедикт
Актеры: Кармен Ардженциано, Джон Кьюсак, Эйлин Грубба, Джулиан Шаффнер
Описание:
2020 год. Глава компании робототехники представил общественности самое сильное творение за всю историю работы над роботами, проект получил название - Kronos. Благодаря этому супер-компьютеру можно моментально предотвратить все идущие в мире войны. Как только они запустили Kronos, то тот провел сравнительный анализ и определил, что человечество по сути и есть самая большая угроза для этого мира. В связи с этим он принял решение уничтожить людской род, дабы спасти мир от апокалипсиса.
Рейтинг MPAA: PG-13 (детям до 13 лет просмотр нежелателен)
Дата мировой премьеры: 3 ноября 2017
Продолжительность: 01:32:54
Качество видео: WEB-DLRip
Перевод: Многоголосый закадровый, профессиональный (@MUZOBOZ@)
Субтитры: Отсутствуют
Реклама: Присутствуют вставки видео, голосовой и текстовой рекламы
Видео: AVC/H.264, 1920x804, ~4794 Kbps
Аудио: AC3, 2 ch, 384 Kbps

Mediainfo:

Общее
Формат : Matroska
Версия формата : Version 4 / Version 2
Размер файла : 3,43 Гбайт
Продолжительность : 1 ч. 32 м.
Режим общего битрейта : Переменный
Общий поток : 5283 Кбит/сек
Программа кодирования : Lavf57.71.100
Библиотека кодирования : Lavf57.71.100
ErrorDetectionType : Per level 1
Видео
Идентификатор : 1
Формат : AVC
Формат/Информация : Advanced Video Codec
Профиль формата : High@L4.1
Параметр CABAC формата : Да
Параметр RefFrames формата : 5 кадров
Идентификатор кодека : V_MPEG4/ISO/AVC
Продолжительность : 1 ч. 32 м.
Вид битрейта : Переменный
Битрейт : 4794 Кбит/сек
Максимальный битрейт : 5500 Кбит/сек
Ширина : 1920 пикселей
Высота : 804 пикселя
Соотношение сторон : 2,40:1
Режим частоты кадров : Постоянный
Частота кадров : 23,976 (24000/1001) кадра/сек
Стандарт вещания : Component
Цветовое пространство : YUV
Субдискретизация насыщенности : 4:2:0
Битовая глубина : 8 бит
Тип развёртки : Прогрессивная
Бит/(Пиксели*Кадры) : 0.130
Размер потока : 3,11 Гбайт (91%)
Default : Да
Forced : Нет
Цветовой диапазон : Limited
Основные цвета : BT.709
Характеристики трансфера : BT.709
Коэффициенты матрицы : BT.709
DURATION : 01:32:53.943000000
Аудио
Идентификатор : 2
Формат : AC-3
Формат/Информация : Audio Coding 3
Параметр Endianness формата : Big
Идентификатор кодека : A_AC3
Продолжительность : 1 ч. 32 м.
Вид битрейта : Постоянный
Битрейт : 384 Кбит/сек
Каналы : 2 канала
Расположение каналов : Front: L R
Частота : 48,0 КГц
Частота кадров : 31,250 кадров/сек (1536 SPF)
Битовая глубина : 16 бит
Метод сжатия : С потерями
Размер потока : 255 Мбайт (7%)
ServiceKind/String : Complete Main
Default : Да
Forced : Нет
DURATION : 01:32:53.902000000
-Скриншоты:


Смотреть онлайн

[trackeroc.ru].22840.torrent 
Торрент: Зарегистрирован   [ 2017-11-05 19:11 ]

Скачать торрент

24 KB

Статус: проверено
Скачан: 18 раз
Размер: 3.43 GB
 

Admin (05-ноя-17)

Похожие торренты
Форум Тема Автор Размер
Strategy Ashes of the Singularity: Escalation (2.30/dlc) (2016) (ENG) GOG Admin 11.91 GB
Strategy, Стратегии Ashes of the Singularity [v2.20 + 6 DLCs] (2016) (ENG) FitGirl Repack Admin 8.36 GB
Action, экшены Singularity (2010) [Ru] (1.1) Repack =nemos= BiOS 3.3 GB
Xbox 360 | Freeboot Singularity (2010) [RUS/RUSSOUND] [Freeboot] [Repack] [XBOX360] BiOS 5.53 GB

_________________
[Профиль] [ЛС]
Показать сообщения:    
Ответить на тему

Текущее время: Сегодня 10:15

Часовой пояс: GMT + 4



Вы не можете начинать темы
Вы не можете отвечать на сообщения
Вы не можете редактировать свои сообщения
Вы не можете удалять свои сообщения
Вы не можете голосовать в опросах
Вы не можете прикреплять файлы к сообщениям
Вы можете скачивать файлы