Слепое пятно / Слепая зона / Blindspot (2016) WEB-DLRip (сезон 2, серии 1-22 из 22) LostFilm скачать торрент

Ответить на тему

Статистика раздачи [Обновить пиров]
Размер:  11.67 GB   |    Зарегистрирован:  4 месяца 29 дней   |    Скачан:  2 раза
Сидов:  1  [  0 KB/s  ]   Подробная статистика пиров
 
   
 
 
Автор Сообщение

BiOS ®

Стаж: 3 года 6 месяцев

Сообщений: 2008

Откуда: Raccoon City


Пост 11-Янв-2017 11:55

[Цитировать]

Слепое пятно / Слепая зона / Blindspot
«Piecing together her past. One tattoo at a time»
- Производство: США / Quinn's House, Berlanti Productions, Universal Television
Жанр: драма, детектив
Режиссер: Марк Пеллингтон
Актеры: Джейми Александер, Салливан Степлтон, Одри Эспарза, Роб Браун, Марианн Жан-Батист, Аквели Роач и др.
Описание:
В центре сюжета находится потерявшая память девушка, которая оказывается в центре расследования после того, как смогла выбраться из брезентового мешка в самом центе Нью-Йорк Сити на Таймс Сквер. Не имея ни малейшего представления о том, кто она такая, девушка не знает, что обозначают многочисленные загадочные татуировки, которыми покрыто все ее тело. Когда выясняется, что татуировки являются чем-то вроде дорожной карты, к делу подключается ФБР.
Продолжительность: ~00:43:00 серия
Качество видео: HDTVRip
Перевод: Многоголосый закадровый, профессиональный - LostFilm
Видео: XviD, 720x400 (16:9), ~1500 kbps
Аудио Rus: MPEG Layer 3, MP3, 48,0 kHz, 2 ch, 128 kbps — многоголосый закадровый

MediaInfo

Код:
Общее
Формат                                   : AVI
Формат/Информация                        : Audio Video Interleave
Размер файла                             : 546 Мбайт
Продолжительность                        : 43 м. 3 с.
Общий поток                              : 1772 Кбит/сек
Название фильма                          : Blindspot.S02E01.WEBDLRip.Rus.Eng.DV.LostFilm / NNM-Club
Программа кодирования                    : VirtualDubModRus 1.5.10.2 (build 2542/release)
Библиотека кодирования                   : VirtualDubMod build 2542/release
Видео
Идентификатор                            : 0
Формат                                   : MPEG-4 Visual
Профиль формата                          : Advanced Simple@L5
Параметр BVOP формата                    : 2
Параметр QPel формата                    : Нет
Параметр GMC формата                     : Без точки перехода
Параметр матрицы формата                 : Default (H.263)
Идентификатор кодека                     : XVID
Идентификатор кодека/Подсказка           : XviD
Продолжительность                        : 43 м. 3 с.
Битрейт                                  : 1502 Кбит/сек
Ширина                                   : 720 пикселей
Высота                                   : 400 пикселей
Соотношение сторон                       : 16:9
Частота кадров                           : 23,976 (24000/1001) кадра/сек
Цветовое пространство                    : YUV
Субдискретизация насыщенности            : 4:2:0
Битовая глубина                          : 8 бит
Тип развёртки                            : Прогрессивная
Метод сжатия                             : С потерями
Бит/(Пиксели*Кадры)                      : 0.218
Размер потока                            : 463 Мбайт (85%)
Заголовок                                : Rip by DriverV / NNM-Club
Библиотека кодирования                   : XviD 64
Аудио #1
Идентификатор                            : 1
Формат                                   : MPEG Audio
Версия формата                           : Version 1
Профиль формата                          : Layer 3
Режим                                    : Joint stereo
Расширение режима                        : MS Stereo
Идентификатор кодека                     : 55
Идентификатор кодека/Подсказка           : MP3
Продолжительность                        : 43 м. 3 с.
Вид битрейта                             : Постоянный
Битрейт                                  : 128 Кбит/сек
Каналы                                   : 2 канала
Частота                                  : 48,0 КГц
Метод сжатия                             : С потерями
Размер потока                            : 39,4 Мбайт (7%)
Выравнивание                             : Соединение по промежуткам
Продолжительность промежутка             : 42  мс. (1,00 видеокадр)
Время предзагрузки промежутка            : 504  мс.
Аудио #2
Идентификатор                            : 2
Формат                                   : MPEG Audio
Версия формата                           : Version 1
Профиль формата                          : Layer 3
Режим                                    : Joint stereo
Расширение режима                        : MS Stereo
Идентификатор кодека                     : 55
Идентификатор кодека/Подсказка           : MP3
Продолжительность                        : 43 м. 3 с.
Вид битрейта                             : Постоянный
Битрейт                                  : 128 Кбит/сек
Каналы                                   : 2 канала
Частота                                  : 48,0 КГц
Метод сжатия                             : С потерями
Размер потока                            : 39,4 Мбайт (7%)
Выравнивание                             : Соединение по промежуткам
Продолжительность промежутка             : 42  мс. (1,00 видеокадр)
Время предзагрузки промежутка            : 504  мс.

Список серий

01. In Night So Ransomed Rogue / Расплата подставного агента
02. Heave Fiery Knot / Они внушают страх
03. Hero Fears Imminent Rot / Ибо их час близок
04. If Beth / ФБР
05. Condone Untidiest Thefts / На страже Конституции
06. Her Spy's Harmed / Армия Шэпэрд
07. Resolves Eleven Myths / Служат только себе
08. We Fight Deaths on Thick Lone Waters / Когда солдаты атакуют, мы даём отпор
09. Why Let Cooler Pasture Deform / Остановить вторую фазу
10. Nor I, Nigel, AKA Leg in Iron / Найджел, или ноги в кандалах
11. Droll Autumn, Unmutual Lord / Странная осень, несговорчивый главарь
12. Devil Never Even Lived / Дьявол решил не жить
13. Name Not One Man / Не стоит называть имён
14. Borrow or Rob / Позаимствовать или украсть
15. Draw O Caesar, Erase a Coward / Нарисовать Цезаря, стереть труса
16. Evil Did I Dwell, Lewd I Did Live / Я жил во зле, я совершал подлости
17. Solos / Соло
18. Senile Lines / Старые линии
19. Regard a Mere Mad Rager / Помните о свирепом бешеном быке
20. In Words, Drown I / В общем, я тону
21. Mom / МамOчка
22. Lepers Repel / Остерегайтесь прокаженных
-Скриншоты:


Смотреть онлайн


[trackeroc.ru].17815.torrent 
Торрент: Зарегистрирован   [ 2017-05-21 13:34 ]

Скачать торрент

32 KB

Статус: проверено
Скачан: 19 раз
Размер: 11.67 GB
 

Похожие торренты
Форум Тема Автор Размер
Зарубежные сериалы Слепое пятно / Слепая зона / Blindspot (2016) WEB-DLRip (сезон 2, серии 1-21 из 23) Кравец Admin 9.55 GB
Зарубежные сериалы Слепое пятно / Слепая зона / Blindspot (2015) WEB-DLRip (сезон 1, серии 1-23 из 23) LostFilm BiOS 12.23 GB
Зарубежные сериалы Слепое пятно / Слепая зона / Blindspot (2015) WEB-DLRip (сезон 1, серии 23 из 23) AlexFilm Admin 11.7 GB

_________________
[Профиль] [ЛС]
Показать сообщения:    
Ответить на тему

Текущее время: Сегодня 14:59

Часовой пояс: GMT + 4



Вы не можете начинать темы
Вы не можете отвечать на сообщения
Вы не можете редактировать свои сообщения
Вы не можете удалять свои сообщения
Вы не можете голосовать в опросах
Вы не можете прикреплять файлы к сообщениям
Вы можете скачивать файлы