Слешер / Slasher / Сезон: 1 / Серии: 1-8 [2016, WEB-DLRip]

Ответить на тему

Статистика раздачи [Обновить пиров]
Размер:  5.17 GB   |    Зарегистрирован:  6 месяцев 21 день   |    Скачан:  1 раз
Сидов:  36  [  0 KB/s  ]   Личеров:  16  [  0 KB/s  ]   Подробная статистика пиров
   
 
Автор Сообщение

Admin ®

Стаж: 7 месяцев 16 дней

Сообщений: 4460

Откуда: trackeroc.ru


Пост 07-Мар-2016 13:49

[Цитировать]

Слешер / Slasher- Год выпуска: 2016
Страна: США, Великобритания, Канада
Жанр: ужасы, детектив, триллер
Продолжительность: ~ 00:50:00
Перевод: Любительский (двухголосый закадровый) [Sunshine Studio]
Режиссёр: Аарон Мартин
В ролях: Кэти МакГрат, Брэндон Джей МакЛарен, Стив Байерс, Джессика Сайпос, Дэвид Патрик Флемминг, Шон Ахмед, Ашанти Бромфилд и др.
Описание: Сара Беннетт, молодая женщина, которая возвращается в небольшой город, где родилась, и обнаруживает себя в центре ужасающей серии убийств, основанных на широко известном убийстве её родителей. Вскоре все, кто окружает Сару, становятся подозреваемыми или жертвами, по мере того, как убийств становится всё больше и раскрываются давно похороненные секреты. Сара начинает допрашивать всех и каждого вокруг себя, включая своего мужа Дилана.

Качество: WEB-DLRip
Формат: AVI
Видео: 720x400 (1.80:1), 23.976 fps, XviD build 50 ~1499 kbps avg, 0.22 bit/pixel
Аудио: 48 kHz, AC3 Dolby Digital, 2/0 (L,R) ch, ~192 kbps
Субтитры: отсутствуют

MediaInfo

Общее
Полное имя : X:\Slasher (S01) WEBDLPip [Sunshine Studio]\Slasher_S01E01_WEB-DLRip_[Sunshine Studio].avi
Формат : AVI
Формат/Информация : Audio Video Interleave
Размер файла : 628 Мбайт
Продолжительность : 51 м.
Общий поток : 1701 Кбит/сек
Программа кодирования : VirtualDubMod 1.5.10.3 | www.virtualdub-fr.org || (build 2550/release)
Библиотека кодирования : VirtualDub build 34753/release
Видео
Идентификатор : 0
Формат : MPEG-4 Visual
Профиль формата : Advanced Simple@L5
Параметр BVOP формата : 2
Параметр QPel формата : Нет
Параметр GMC формата : Без точки перехода
Параметр матрицы формата : Default (H.263)
Идентификатор кодека : XVID
Идентификатор кодека/Подсказка : XviD
Продолжительность : 51 м.
Битрейт : 1499 Кбит/сек
Ширина : 720 пикселей
Высота : 400 пикселей
Соотношение сторон : 16:9
Частота кадров : 23,976 кадра/сек
Цветовое пространство : YUV
Субдискретизация насыщенности : 4:2:0
Битовая глубина : 8 бит
Тип развёртки : Прогрессивная
Метод сжатия : С потерями
Бит/(Пиксели*Кадры) : 0.217
Размер потока : 553 Мбайт (88%)
Библиотека кодирования : XviD 1.2.1 (UTC 2008-12-04)
Аудио
Идентификатор : 1
Формат : AC-3
Формат/Информация : Audio Coding 3
Расширение режима : CM (complete main)
Параметр Endianness формата : Big
Идентификатор кодека : 2000
Продолжительность : 51 м.
Вид битрейта : Постоянный
Битрейт : 192 Кбит/сек
Каналы : 2 канала
Расположение каналов : Front: L R
Частота : 48,0 КГц
Метод сжатия : С потерями
Задержка видео : 23 мс.
Размер потока : 70,9 Мбайт (11%)
Выравнивание : Разделение по промежуткам
Продолжительность промежутка : 42 мс. (1,00 видеокадр)
Время предзагрузки промежутка : 500 мс.

Скриншоты

Внимание! Раздача ведётся путём добавления новых серий

Внимание! Раздача ведётся путём добавления новых серий; при каждом добавлении создаётся новый торрент. Чтобы начать докачку новой серии, пользователям необходимо сделать следующее:
(1) остановить скачивание,
(2) удалить старый торрент у себя из клиента (старые серии удалять не надо),
(3) скачать новый торрент и запустить его у себя в клиенте вместо старого, при этом указать клиенту путь в старую папку куда и должно происходить скачивание новых серий.
Ваш клиент при этом должен произвести хеширование (проверку) старой папки (если не производит сам - помогите ему сделать это), и будет докачивать только те серии которых у вас ещё нет. Старые серии при этом не удаляются, а продолжают раздаваться!
Eсли вы уже удалили старые серии, то предотвратить повторную закачку старых серий можно, отжав галочку в соответствующих местах при запуске нового торрента. По возможности, желательно не удалять старые серии как можно дольше, чтобы релизёр не столько продолжал раздавать старые серии, а смог сконцентрироваться на новых.


Смотреть онлайн

[trackeroc.ru].11985.torrent 
Торрент: Зарегистрирован   [ 2016-05-21 09:25 ]

Скачать торрент

27 KB

Статус: проверено
Скачан: 8 раз
Размер: 5.17 GB
 

BiOS (07-мар-16)
Похожие торренты
Форум Тема Автор Размер
Комедии Лос-анджелесский слэшер / L.A. Slasher (2015) DVDRip Admin 1.37 GB
Action экшены Star Wars: The Force Unleashed (2009) (Action (Slasher) / 3D / 3rd Person) (ENG+RUS) [RePack] Buyan 7.12 GB

_________________
[Профиль] [ЛС]
Показать сообщения:    
Ответить на тему

Текущее время: Сегодня 09:55

Часовой пояс: GMT + 4



Вы не можете начинать темы
Вы не можете отвечать на сообщения
Вы не можете редактировать свои сообщения
Вы не можете удалять свои сообщения
Вы не можете голосовать в опросах
Вы не можете прикреплять файлы к сообщениям
Вы можете скачивать файлы