Смертельный оргазм / Кончить До Смерти / Deathgasm [2015, HDRip]

Ответить на тему

Статистика раздачи [Обновить пиров]
Размер:  1.38 GB   |    Зарегистрирован:  1 год 6 месяцев   |    Скачан:  9 раз

Полного источника не было: 4 дня

 
   
 
 
 
Автор Сообщение

Admin ®

Стаж: 3 года

Сообщений: 4789

Откуда: Скачать торрент


Пост 07-Окт-2015 10:13

[Цитировать]

Смертельный оргазм / Кончить До Смерти / Deathgasm
Страна: Новая Зеландия
Жанр: Ужасы, Комедия
Год выпуска: 2015
Продолжительность: 01:26:09
Перевод: Одноголосый закадровый Васька Куролесов по субтитрам Qulevra
Cубтитры: нет
Оригинальная аудиодорожка: нет
Режиссер: Джейсон Ли Хауден / Jason Lei Howden
В ролях: Мило Коуторн, Джеймс Блейк, Кимберли Кроссман, Сэм Беркли, Дэниэл Крессвелл, Делани Таброн, Стефан Уре, Колин Мой, Джоди Риммер, Ник Хоскинс-Смит
Описание: Два парня создают хеви металлическую группу. Но в момент их игры они пускают в этот мир злые силы, которые обещают им славу и величие.
Дополнительно: Рецепт салата "Кончить До Смерти": смешать вместе металлистов, сатанистов, набожных святош и демонов, и заправить большим количеством крови. Приятного аппетита !

Семпл
Качество видео: HDRip
Формат видео: AVI
Видео: 720x304, 2089 Кбит/с, 23.976 fps
Аудио: AC-3; ~192 kbps, 48000Hz, 2 ch

MediaInfo

General
Complete name : G:\Deathgasm 2015_KypoJIecoB.avi
Format : AVI
Format/Info : Audio Video Interleave
File size : 1.38 GiB
Duration : 1h 26mn
Overall bit rate : 2 291 Kbps
Video
ID : 0
Format : MPEG-4 Visual
Format profile : Advanced Simple@L5
Format settings, BVOP : 2
Format settings, QPel : No
Format settings, GMC : No warppoints
Format settings, Matrix : Default (H.263)
Codec ID : XVID
Codec ID/Hint : XviD
Duration : 1h 26mn
Bit rate : 2 089 Kbps
Width : 720 pixels
Height : 304 pixels
Display aspect ratio : 2.35:1
Frame rate : 23.976 fps
Color space : YUV
Chroma subsampling : 4:2:0
Bit depth : 8 bits
Scan type : Progressive
Compression mode : Lossy
Bits/(Pixel*Frame) : 0.398
Stream size : 1.26 GiB (91%)
Writing library : XviD 67
Audio
ID : 1
Format : AC-3
Format/Info : Audio Coding 3
Mode extension : CM (complete main)
Format settings, Endianness : Big
Codec ID : 2000
Duration : 1h 26mn
Bit rate mode : Constant
Bit rate : 192 Kbps
Channel(s) : 2 channels
Channel positions : Front: L R
Sampling rate : 48.0 KHz
Compression mode : Lossy
Stream size : 118 MiB (8%)
Alignment : Split accross interleaves
Interleave, duration : 42 ms (1.00 video frame)
Interleave, preload duratio : 500 ms

Скриншот c названием фильма

Скриншоты

Релиз:
После титров концовка!
НЕНОРМАТИВ!


Смотреть онлайн


[trackeroc.ru].8495.torrent 
Торрент: Зарегистрирован   [ 2015-10-07 10:13 ]

Скачать торрент

14 KB

Статус: проверено
Скачан: 36 раз
Размер: 1.38 GB
 

Похожие торренты
Форум Тема Автор Размер
Квесты, я ищу, Поиск предметов, Hidden Object Mystery of the Ancients 4: Deadly Cold Collector’s Edition /Тайны древности 4: Смертельный холод (2015) (Big Fish Games) (RUS) [P] HOPE 921 MB

_________________
[Профиль] [ЛС]
Показать сообщения:    
Ответить на тему

Текущее время: Сегодня 01:53

Часовой пояс: GMT + 4



Вы не можете начинать темы
Вы не можете отвечать на сообщения
Вы не можете редактировать свои сообщения
Вы не можете удалять свои сообщения
Вы не можете голосовать в опросах
Вы не можете прикреплять файлы к сообщениям
Вы можете скачивать файлы