Сорвиголова / Daredevil / Сезон: 1 / Серии: 1-13 из 13 [2015, фантастика, боевик, WEBRip]

Ответить на тему

Статистика раздачи [Обновить пиров]
Размер:  8.88 GB   |    Зарегистрирован:  1 год 4 месяца   |    Скачан:  3 раза
Сидов:  40  [  0 KB/s  ]   Личеров:  13  [  0 KB/s  ]   Подробная статистика пиров
   
 
Автор Сообщение

Admin ®

Стаж: 7 месяцев 11 дней

Сообщений: 4447

Откуда: trackeroc.ru


Пост 29-Июл-2015 16:16

[Цитировать]

СорвиголоваDaredevil-Год выпуска: 2015
Страна: США
Жанр: фантастика, боевик
Продолжительность: 00:53:00-Перевод: Профессиональный (многоголосый, закадровый) (NewStudio)-Режиссер: Фил Абрахам / Phil Abraham, Стивен С. ДеНайт / Steven S. DeKnight, Кен Джиротти / Ken Girotti
В ролях:
Чарли Кокс (Daredevil), Дебора Энн Уолл (Karen Page), Элден Хенсон (Foggy Nelson), Розарио Доусон (Claire Temple), Винсент Д’Онофрио (Wilson Fisk), Айелет Зурер (Vanessa Marianna), Боб Гантон (Leland Owlsley), Тоби Мур (Wesley), Вонди Куртис-Холл (Ben Urich), Роб Морган (Turk), Джеффри Кантор (Ellison), Питер Шинкода-Описание: Слепой адвокат обнаруживает, что у него невероятно усилены все остальные чувства. Осознав это, он в костюме супергероя отправляется на борьбу с преступностью...- --Релиз:
Перевод: Александра Цернант, MartinaG, Юрий Башенкер, Алексей Корягин-Все раздачи сериала | Семпл |-Качество: WEBRip
Контейнер: AVI
Видео: XviD, 720x400 (16:9), 23,976 fps, ~1570 kbps, 0.23 bit/pixel
Аудио №1: MP3, 48 kHz, 2 ch, 128 kbps - Rus
Аудио №2: MP3, 48 kHz, 2 ch, 128 kbps - Eng
Субтитры: нет-

Скриншоты

MediaInfo

Общее
Формат : AVI
Формат/Информация : Audio Video Interleave
Размер файла : 700 Мбайт
Продолжительность : 53 м.
Общий поток : 1845 Кбит/сек
Программа кодирования : VirtualDubMod 1.5.10.2 (build 2540/release)
Библиотека кодирования : VirtualDubMod build 2540/release
Видео
Идентификатор : 0
Формат : MPEG-4 Visual
Профиль формата : Advanced Simple@L5
Параметр BVOP формата : Нет
Параметр QPel формата : Нет
Параметр GMC формата : Без точки перехода
Параметр матрицы формата : Default (H.263)
Идентификатор кодека : XVID
Идентификатор кодека/Подсказка : XviD
Продолжительность : 53 м.
Битрейт : 1576 Кбит/сек
Ширина : 720 пикселей
Высота : 400 пикселей
Соотношение сторон : 16:9
Частота кадров : 23,976 кадра/сек
Цветовое пространство : YUV
Субдискретизация насыщенности : 4:2:0
Битовая глубина : 8 бит
Тип развёртки : Прогрессивная
Метод сжатия : С потерями
Бит/(Пиксели*Кадры) : 0.228
Размер потока : 597 Мбайт (85%)
Библиотека кодирования : XviD 73
Аудио #1
Идентификатор : 1
Формат : MPEG Audio
Версия формата : Version 1
Профиль формата : Layer 3
Режим : Joint stereo
Расширение режима : MS Stereo
Идентификатор кодека : 55
Идентификатор кодека/Подсказка : MP3
Продолжительность : 52 м.
Вид битрейта : Постоянный
Битрейт : 128 Кбит/сек
Каналы : 2 канала
Частота : 48,0 КГц
Метод сжатия : С потерями
Размер потока : 48,5 Мбайт (7%)
Выравнивание : Соединение по промежуткам
Продолжительность промежутка : 42 мс. (1,00 видеокадр)
Время предзагрузки промежутка : 504 мс.
Аудио #2
Идентификатор : 2
Формат : MPEG Audio
Версия формата : Version 1
Профиль формата : Layer 3
Режим : Joint stereo
Расширение режима : MS Stereo
Идентификатор кодека : 55
Идентификатор кодека/Подсказка : MP3
Продолжительность : 53 м.
Вид битрейта : Постоянный
Битрейт : 128 Кбит/сек
Каналы : 2 канала
Частота : 48,0 КГц
Метод сжатия : С потерями
Размер потока : 48,5 Мбайт (7%)
Выравнивание : Соединение по промежуткам
Продолжительность промежутка : 42 мс. (1,00 видеокадр)
Время предзагрузки промежутка : 504 мс.
Библиотека кодирования : LAME3.90.3
-Как закачать отдельный файл из торрента или докачать ранее пропущенные файлы торрента!-

Внимание! Раздача ведётся путём добавления новых серий

Внимание! Раздача ведётся путём добавления новых серий; при каждом добавлении создаётся новый торрент. Чтобы начать докачку новой серии, пользователям необходимо сделать следующее: (1) остановить скачивание, (2) удалить старый торрент у себя из клиента (старые серии удалять не надо), (3) скачать новый торрент и запустить его у себя в клиенте вместо старого, при этом указать клиенту путь в старую папку куда и должно происходить скачивание новых серий.
Ваш клиент при этом должен произвести хеширование (проверку) старой папки (если не производит сам - помогите ему сделать это), и будет докачивать только те серии которых у вас ещё нет. Старые серии при этом не удаляются, а продолжают раздаваться!
Eсли вы уже удалили старые серии, то предотвратить повторную закачку старых серий можно, отжав галочку в соответствующих местах при запуске нового торрента.


Смотреть онлайн

[trackeroc.ru].7233.torrent 
Торрент: Зарегистрирован   [ 2015-07-29 16:16 ]

Скачать торрент

46 KB

Статус: проверено
Скачан: 7 раз
Размер: 8.88 GB
 

Похожие торренты
Форум Тема Автор Размер
Зарубежные сериалы Сорвиголова / Daredevil / Сезон: 2 / Серии: 1-13 из 13 [2016, фантастика, боевик, WEBRip] Admin 8.62 GB

_________________
[Профиль] [ЛС]
Показать сообщения:    
Ответить на тему

Текущее время: Сегодня 06:50

Часовой пояс: GMT + 4



Вы не можете начинать темы
Вы не можете отвечать на сообщения
Вы не можете редактировать свои сообщения
Вы не можете удалять свои сообщения
Вы не можете голосовать в опросах
Вы не можете прикреплять файлы к сообщениям
Вы можете скачивать файлы