Сотня / The 100 / The Hundred (2014) (сезон 2, серии 1-16 из 16) WEB-DLRip (LostFilm)

Ответить на тему

Статистика раздачи [Обновить пиров]
Размер:  8.21 GB   |    Зарегистрирован:  10 месяцев 18 дней   |    Скачан:  3 раза

Полного источника не было: 13 дней

 
 
 
 
Автор Сообщение

BiOS ®

Стаж: 2 года 7 месяцев

Сообщений: 1740

Откуда: Raccoon City


Пост 23-Янв-2016 11:12

[Цитировать]

Сотня / The 100 / The Hundred
«Survival isn't who you are. It's who you become»
- Производство: США
Жанр: фантастика
Перевод: Многоголосый закадровый, профессиональный - LostFilm
Режиссер: Бхарат Наллури, П.Дж. Пеше
Актеры: Крис Браунинг, Изабела Видович, Карисса Дэй, Генри Йен Кьюсик, Келли Ху, Фред Крус, Риз Александр, Мари Авгеропулос, Девон Бостик, Женевьев Бюкнер и др.
Описание фильма:
События в сериале начинают разворачиваться по прошествии девяносто семи лет после того как всю цивилизацию уничтожила страшная атомная война.
Высоко в космосе на орбите Земли летает большой космический корабль, именно здесь находятся те, кто выжил после страшной катастрофы. Они единственные кто пережил этот ужасный катаклизм который устроило человечество. Именно с этого последнего пристанища людей на Землю отправляют космический челнок на котором находятся сто малолетних преступников…
Продолжительность: ~00:42:00 серия
Качество видео: WEB-DLRip
Формат: AVI
Видеокодек: XviD
Битрейт видео: ~1914 kb/s
Размер кадра: 720х400 (16:9)
Аудио Rus: (MPEG Layer 3, 48,0 kHz, 2 ch, 192 kb/s) - многоголосый закадровый

MediaInfo

Код:
Общее
Полное имя                               : D:\Сотня (сезон 2) The 100 (2014) WEB-DLRip - LostFilm\The.Hundred.S02E01.rus.LostFilm.TV.avi
Формат                                   : AVI
Формат/Информация                        : Audio Video Interleave
Размер файла                             : 646 Мбайт
Продолжительность                        : 42 м.
Режим общего битрейта                    : Переменный
Общий поток                              : 2114 Кбит/сек
Программа кодирования                    : Nandub v1.0rc2
Библиотека кодирования                   : Nandub build 1853/release
Видео
Идентификатор                            : 0
Формат                                   : MPEG-4 Visual
Профиль формата                          : Advanced Simple@L5
Параметр BVOP формата                    : Нет
Параметр QPel формата                    : Нет
Параметр GMC формата                     : Без точки перехода
Параметр матрицы формата                 : Default (H.263)
Идентификатор кодека                     : XVID
Идентификатор кодека/Подсказка           : XviD
Продолжительность                        : 42 м.
Битрейт                                  : 1914 Кбит/сек
Ширина                                   : 720 пикселей
Высота                                   : 400 пикселей
Соотношение сторон                       : 16:9
Частота кадров                           : 23,976 кадра/сек
Цветовое пространство                    : YUV
Субдискретизация насыщенности            : 4:2:0
Битовая глубина                          : 8 бит
Тип развёртки                            : Прогрессивная
Метод сжатия                             : С потерями
Бит/(Пиксели*Кадры)                      : 0.277
Размер потока                            : 584 Мбайт (90%)
Библиотека кодирования                   : XviD 1.2.1 (UTC 2008-12-04)
Аудио
Идентификатор                            : 1
Формат                                   : MPEG Audio
Версия формата                           : Version 1
Профиль формата                          : Layer 3
Режим                                    : Joint stereo
Расширение режима                        : MS Stereo
Идентификатор кодека                     : 55
Идентификатор кодека/Подсказка           : MP3
Продолжительность                        : 42 м.
Вид битрейта                             : Переменный
Битрейт                                  : 192 Кбит/сек
Каналы                                   : 2 канала
Частота                                  : 48,0 КГц
Метод сжатия                             : С потерями
Размер потока                            : 57,5 Мбайт (9%)
Выравнивание                             : Соединение по промежуткам
Продолжительность промежутка             : 24  мс. (0,58 видеокадр)
Время предзагрузки промежутка            : 481  мс.
Библиотека кодирования                   : LAME3.97b
Настройки программы                      : -m j -V 4 -q 3 -lowpass 18.6 --abr 192

Список серий


01. The 48 / 48
02. Inclement Weather / Суровая Вэзер
03. Reapercussions / Последствия
04. Many Happy Returns / Долгих лет жизни
05. Human Trials / Эксперименты над людьми
06. Fog of War / Туман войны
07. Long Into an Abyss / В самую бездну
08. Spacewalker / Космический странник
09. Remember Me / Помни меня
10. Survival of the Fittest / Выживает сильнейший
11. Coup de Grâce / Смертельный удар
12. Rubicon / Рубикон
13. Resurrection / Воскрешение
14. Bodyguard of Lies / Защитник лжи
15. Blood Must Have Blood: Part 1 / Кровь за кровь. Часть 1
16. Blood Must Have Blood: Part 2 / Кровь за кровь. Часть 2
-Скриншоты:


Смотреть онлайн

[trackeroc.ru].11190.torrent 
Торрент: Зарегистрирован   [ 2016-01-23 11:12 ]

Скачать торрент

43 KB

Статус: проверено
Скачан: 23 раз
Размер: 8.21 GB
 

Admin (23-янв-16)
Похожие торренты
Форум Тема Автор Размер
Зарубежные сериалы Сотня / The 100 / The Hundred (2016) (сезон 3, серии 1-16) Admin 7.82 GB
Зарубежные сериалы Сотня / The 100 / The Hundred (2014) (сезон 1, серии 1-13 из 13) BDRip (AlexFilm, LostFilm, Kravec, NewStudio) BiOS 14.3 GB

_________________
[Профиль] [ЛС]
Показать сообщения:    
Ответить на тему

Текущее время: Сегодня 08:02

Часовой пояс: GMT + 4



Вы не можете начинать темы
Вы не можете отвечать на сообщения
Вы не можете редактировать свои сообщения
Вы не можете удалять свои сообщения
Вы не можете голосовать в опросах
Вы не можете прикреплять файлы к сообщениям
Вы можете скачивать файлы