Совершенно секретно! / Top Secret! (1984) DVDRip

Ответить на тему

Статистика раздачи [Обновить пиров]
Размер:  1.39 GB   |    Зарегистрирован:  5 месяцев 21 день   |    Скачан:  1 раз

Полного источника не было: 2 дня 13 часов

 
 
 
 
Автор Сообщение

BiOS ®

Стаж: 2 года 7 месяцев

Сообщений: 1732

Откуда: Raccoon City


Пост 19-Ноя-2015 11:35

[Цитировать]

Совершенно секретно! / Top Secret!
«From the makers of the original 'Airplane!'»
- Русское название: Совершенно секретно!
Оригинальное название: Top Secret!
Год выпуска: 1984
Жанр: Комедия
Описание фильма:
Пародия на шпионские фильмы. Восточная Германия времен «холодной войны». Здесь военщина замышляет коварный план по уничтожению кораблей НАТО, для чего похищает ученого доктора Фламонда, запирает его в темнице, заставляя сотворить мину «Поларис». Прикрытием для преступных замыслов служит международный фестиваль, на который приглашают артистов из разных стран.
Из Америки приезжает рок-певец Ник Риверс и знакомится с очаровательной Хиллари — дочерью Фламонда. Она — участник подпольного сопротивления, к которому привлекает и Ника…

Режиссер: Джим Абрахамс, Дэвид Цукер, Джерри Цукер
Актеры: Вэл Килмер, Люси Гютеридж, Питер Кашинг, Джереми Кемп, Кристофер Вилльерс, Уоррен Кларк, Гарри Дитсон, Джим Картер, Эдди Тэгоу, Омар Шариф
Продолжительность: 01:26:24
Качество видео: DVDRip
Перевод: Многоголосый закадровый
Дата мировой премьеры: 8 июня 1984
Видео: XviD, 720x400, ~2098 kbps
Аудио: AC3, 2.0, 192 kbps

Mediainfo:

Код:
General
Complete name                    : С:\top_secret.avi
Format                           : AVI
Format/Info                      : Audio Video Interleave
File size                        : 1.39 GiB
Duration                         : 1h 26mn
Overall bit rate                 : 2 297 Kbps
Writing application              : VirtualDubMod 1.5.10.2 (build 2540/release)
Writing library                  : VirtualDubMod build 2540/release
Video
ID                               : 0
Format                           : MPEG-4 Visual
Format profile                   : Advanced Simple@L5
Format settings, BVOP            : Yes
Format settings, QPel            : No
Format settings, GMC             : No warppoints
Format settings, Matrix          : Default (H.263)
Muxing mode                      : Packed bitstream
Codec ID                         : XVID
Codec ID/Hint                    : XviD
Duration                         : 1h 26mn
Bit rate                         : 2 095 Kbps
Width                            : 720 pixels
Height                           : 400 pixels
Display aspect ratio             : 16:9
Frame rate                       : 25.000 fps
Color space                      : YUV
Chroma subsampling               : 4:2:0
Bit depth                        : 8 bits
Scan type                        : Progressive
Bits/(Pixel*Frame)               : 0.291
Stream size                      : 1.26 GiB (91%)
Writing library                  : XviD 1.2.1 (UTC 2008-12-04)
Audio
ID                               : 1
Format                           : AC-3
Format/Info                      : Audio Coding 3
Format profile                   : Dolby Digital
Mode extension                   : CM (complete main)
Codec ID                         : 2000
Duration                         : 1h 26mn
Bit rate mode                    : Constant
Bit rate                         : 192 Kbps
Channel(s)                       : 2 channels
Channel positions                : Front: L R
Sampling rate                    : 48.0 KHz
Bit depth                        : 16 bits
Stream size                      : 119 MiB (8%)
Alignment                        : Split accross interleaves
Interleave, duration             : 40 ms (1.00 video frame)
Interleave, preload duration     : 500 ms
-Скриншоты:


Смотреть онлайн

[trackeroc.ru].9912.torrent 
Торрент: Зарегистрирован   [ 2016-06-16 11:14 ]

Скачать торрент

15 KB

Статус: проверено
Скачан: 47 раз
Размер: 1.39 GB
 

Admin (19-ноя-15), Angel (20-ноя-15)

_________________
[Профиль] [ЛС]
Показать сообщения:    
Ответить на тему

Текущее время: Сегодня 14:28

Часовой пояс: GMT + 4



Вы не можете начинать темы
Вы не можете отвечать на сообщения
Вы не можете редактировать свои сообщения
Вы не можете удалять свои сообщения
Вы не можете голосовать в опросах
Вы не можете прикреплять файлы к сообщениям
Вы можете скачивать файлы