Способ убийства (1993) DVDRip

Ответить на тему
 
Автор Сообщение

BiOS ®

Стаж: 3 года 2 месяца

Сообщений: 1987

Откуда: Raccoon City


Пост 19-Июл-2016 07:01

[Цитировать]

Способ убийства - Производство: Россия, Украина / Киностудия им. А.Довженко, Студия "Ч"
Жанр: Триллер, экранизация
Режиссер: Олег Гойда
Актеры: Евдокия Германова, Регимантас Адомайтис, Алексей Серебряков, Алексей Горбунов, Елена Сотникова, Елена Петрова, Наталья Шостак, Евгений Князев, Александр Милютин, Антон Гойда ...
Описание: Психологический триллер по мотивам детектива Эда Макбейна. В основе сюжета - два параллельно развивающихся события, в центре которых детектив Стив Карелла, которому поручено непростое дело: накануне хозяин богатой виллы миллионер Скотт повесился в небольшой комнате, предварительно закрывшись изнутри весьма хитроумным способом... А тем временем в полицейский участок приходит некая Вирджиния с целью убить самого Кареллу. Ведь он когда-то арестовал ее мужа - и тот умер в тюрьме...
Возраст: 0+ (для любой зрительской аудитории)
Продолжительность: 01:03:17
Качество видео: DVDRip
Видео: MPEG4, XviD, 720x416 (16:9), 25.000 fps, 4 244 Kbps (0.567 bit/pixel)
Аудио: AC-3, 48.0 KHz, 6 ch, 448 Kbps, CBR

MediaInfo:

Код:
Общее
Формат                                   : AVI
Формат/Информация                        : Audio Video Interleave
Профиль формата                          : OpenDML
Размер файла                             : 2,08 Гбайт
Продолжительность                        : 1 ч. 3 м.
Общий поток                              : 4704 Кбит/сек
Программа кодирования                    : FairUse Wizard - http://fairusewizard.com
Библиотека кодирования                   : The best and REALLY easy backup tool
Видео
Идентификатор                            : 0
Формат                                   : MPEG-4 Visual
Профиль формата                          : Advanced Simple@L5
Параметр BVOP формата                    : 1
Параметр QPel формата                    : Нет
Параметр GMC формата                     : Без точки перехода
Параметр матрицы формата                 : Default (MPEG)
Режим смешивания                         : Сжатый битовый поток
Идентификатор кодека                     : XVID
Идентификатор кодека/Подсказка           : XviD
Продолжительность                        : 1 ч. 3 м.
Битрейт                                  : 4244 Кбит/сек
Ширина                                   : 720 пикселей
Высота                                   : 416 пикселей
Соотношение сторон                       : 1,731
Частота кадров                           : 25,000 кадров/сек
Цветовое пространство                    : YUV
Субдискретизация насыщенности            : 4:2:0
Битовая глубина                          : 8 бит
Тип развёртки                            : Прогрессивная
Метод сжатия                             : С потерями
Бит/(Пиксели*Кадры)                      : 0.567
Размер потока                            : 1,88 Гбайт (90%)
Библиотека кодирования                   : XviD 1.2.0.dev47 (UTC 2006-11-01)
Аудио
Идентификатор                            : 1
Формат                                   : AC-3
Формат/Информация                        : Audio Coding 3
Расширение режима                        : CM (complete main)
Параметр Endianness формата              : Big
Идентификатор кодека                     : 2000
Продолжительность                        : 1 ч. 3 м.
Вид битрейта                             : Постоянный
Битрейт                                  : 448 Кбит/сек
Каналы                                   : 6 каналов
Расположение каналов                     : Front: L C R, Side: L R, LFE
Частота                                  : 48,0 КГц
Частота кадров                           : 31,250 кадров/сек (1536 spf)
Метод сжатия                             : С потерями
Размер потока                            : 203 Мбайт (10%)
Выравнивание                             : Разделение по промежуткам
Продолжительность промежутка             : 40  мс. (1,00 видеокадр)
Время предзагрузки промежутка            : 500  мс.
-Скриншоты:


Смотреть онлайн


[trackeroc.ru].13930.torrent 
Торрент: Зарегистрирован   [ 2016-07-19 07:01 ]

Скачать торрент

11 KB

Статус: проверено
Скачан: 22 раз
Размер: 2.08 GB
 

Похожие торренты
Форум Тема Автор Размер
Adventure Alone in the Dark 2 (1993) [En] (1.0) License GOG BiOS 412 MB
Ужасы ,мистика ,триллеры Подвиды 2: Кровавый камень / Bloodstone: Subspecies II (1993) BDRip [H.264] [AVO] BiOS 2.18 GB
Ужасы ,мистика ,триллеры The Crawlers / Contamination .7 / Заражение седьмой степени (1993) DVD5 BiOS 4 GB
Фантастика ,Фэнтези Полное затмение / Full Eclipse (1993) HDTVRip BiOS 1.44 GB

_________________
[Профиль] [ЛС]
Показать сообщения:    
Ответить на тему

Текущее время: Сегодня 07:25

Часовой пояс: GMT + 4



Вы не можете начинать темы
Вы не можете отвечать на сообщения
Вы не можете редактировать свои сообщения
Вы не можете удалять свои сообщения
Вы не можете голосовать в опросах
Вы не можете прикреплять файлы к сообщениям
Вы можете скачивать файлы