Смертельная семёрка / Dead 7 [2016, США, ужасы, вестерн, WEBRip]

Ответить на тему

Статистика раздачи [Обновить пиров]
Размер:  1.37 GB   |    Зарегистрирован:  7 месяцев 7 дней   |    Скачан:  4 раза

Полного источника не было: 2 месяца 16 дней

 
 
 
 
Автор Сообщение

Admin ®

Стаж: 7 месяцев 15 дней

Сообщений: 4460

Откуда: trackeroc.ru


Пост 03-Май-2016 13:02

[Цитировать]

Смертельная семёрка / Dead 7
Страна: США
Жанр: ужасы, вестерн
Год выпуска: 2016
Продолжительность: 01:26:18
Перевод: Одноголосый закадровый Васька Куролесов по субтитрам Enigma
Cубтитры: нет
Оригинальная аудиодорожка: нет
Режиссер: Денни Роу / Danny Roew
В ролях: Ник Картер, Кэрри Киган, Джои Фатоне, Эй Джей МакЛин, Хоуи Дороу, Лорен Китт, Крис Киркпатрик, Джефф Тиммонс, Эрик-Майкл Эстрада, Дебра Уилсон
Описание: Это пост-апокалиптический вестерн, в котором группа убийц собираются избавить маленький городок от зомби-чумы.
Сэмпл: http://multi-up.com/1100016
Качество видео: WEBRip
Формат видео: AVI
Видео: XviD , 2067 Кбит/с, 720x400, 23.976 fps
Аудио: AC-3, 2 ch, 192 Кбит/с, 48.0 KHz
Релиз:

MediaInfo

General
Complete name : G:\Dead.7.2016.HDRip_KypoJIecoB.avi
Format : AVI
Format/Info : Audio Video Interleave
File size : 1.37 GiB
Duration : 1h 26mn
Overall bit rate : 2 269 Kbps
Video
ID : 0
Format : MPEG-4 Visual
Format profile : Advanced Simple@L5
Format settings, BVOP : 2
Format settings, QPel : No
Format settings, GMC : No warppoints
Format settings, Matrix : Default (H.263)
Codec ID : XVID
Codec ID/Hint : XviD
Duration : 1h 26mn
Bit rate : 2 067 Kbps
Width : 720 pixels
Height : 400 pixels
Display aspect ratio : 16:9
Frame rate : 23.976 fps
Color space : YUV
Chroma subsampling : 4:2:0
Bit depth : 8 bits
Scan type : Progressive
Compression mode : Lossy
Bits/(Pixel*Frame) : 0.299
Stream size : 1.25 GiB (91%)
Writing library : XviD 66
Audio
ID : 1
Format : AC-3
Format/Info : Audio Coding 3
Mode extension : CM (complete main)
Format settings, Endianness : Big
Codec ID : 2000
Duration : 1h 26mn
Bit rate mode : Constant
Bit rate : 192 Kbps
Channel(s) : 2 channels
Channel positions : Front: L R
Sampling rate : 48.0 KHz
Compression mode : Lossy
Stream size : 119 MiB (8%)
Alignment : Split accross interleaves
Interleave, duration : 42 ms (1.00 video frame)
Interleave, preload duratio : 500 ms

Скриншот c названием фильма

Скриншоты



Смотреть онлайн

[trackerock.ru].12457.torrent 
Торрент: Зарегистрирован   [ 2016-05-03 13:02 ]

Скачать торрент

55 KB

Статус: * не проверено
Скачан: 25 раз
Размер: 1.37 GB
 

Похожие торренты
Форум Тема Автор Размер
Боевики Великолепная семерка / The Magnificent Seven (2016) TS BiOS 2.05 GB
Квесты , я ищу , Поиск предметов Hidden Object Final Cut 5: Fame Fatale Collector’s Edition/Последний дубль 5. Смертельная слава. (2015) (RUS) [P] HOPE 711 MB

_________________
[Профиль] [ЛС]
Показать сообщения:    
Ответить на тему

Текущее время: Сегодня 18:36

Часовой пояс: GMT + 4



Вы не можете начинать темы
Вы не можете отвечать на сообщения
Вы не можете редактировать свои сообщения
Вы не можете удалять свои сообщения
Вы не можете голосовать в опросах
Вы не можете прикреплять файлы к сообщениям
Вы можете скачивать файлы