Стар против сил зла / Star vs. The Forces of Evil (2015) WEB-DL (Сезон 1, серии 1-13 из 13)

Ответить на тему

Статистика раздачи [Обновить пиров]
Размер:  5.35 GB   |    Зарегистрирован:  5 месяцев 16 дней   |    Скачан:  3 раза

Полного источника не было: 16 часов

 
 
 
 
Автор Сообщение

BiOS ®

Стаж: 2 года 7 месяцев

Сообщений: 1733

Откуда: Raccoon City


Пост 18-Окт-2015 08:32

[Цитировать]

Стар против сил зла / Star vs. The Forces of Evil
«In 2015. Star Butterfly will come to Earth and change the lives of the Diaz family forever!»
- Производство: США, Disney XD
Жанр: Мультфильм, комедия, приключения
Режиссер: Майкл Маллен, Дэвид Вассон
Персонажи: Иден Шер - Star Butterfly, Адам МакАртур - Marco Diaz, Дженни Слейт - Flying Princess Pony Head, Алан Тьюдик - Ludo и другие.
Описание:
После бесчисленных драк с опасными монстрами в своём родном измерении, Стар Баттерфляй прибывает на Землю в городок Эхо Крик, где живёт с семьёй Диез. Но и здесь её не ждет мирная жизнь. Вместе с новым другом Марко Диезом она продолжает сражаться с силами зла по всей Вселенной (и в школе), чтобы защитить свой невероятно мощный волшебный жезл, которым, впрочем, она все еще плохо владеет.
Продолжительность: ~ 00:23:00 каждая серия
Качество видео: WEB-DLRip
Перевод: Любительский многоголосый закадровый
Автор перевода: Виктория Ларькина, Сергей Перминов
Вид субтитров: Внешними файлами
Язык субтитров: Русский
Релиз от: FRT Sora
Видео: AVC/H.264, ~3400 Кбит/с, 1280x720, (16:9), 23.976 fps
Аудио Русский: 48 kHz, AC-3, 2 ch, 192 Кбит/с avg | FRT Sora |
Аудио Английский: 48 kHz, AAC, 2 ch, 140 Кбит/с avg | Оригинал |

Mediainfo:

Код:
General
Format                      : MPEG-4
Format profile              : Base Media
Codec ID                    : isom
File size                   : 580 MiB
Duration                    : 22mn 3s
Overall bit rate mode       : Variable
Overall bit rate            : 3 674 Kbps
Encoded date                : UTC 2015-03-04 09:36:28
Tagged date                 : UTC 2015-03-04 09:36:28
Writing application         : Yamb 2.1.0.0 [http://yamb.unite-video.com]
Video
ID                          : 1
Format                      : AVC
Format/Info                 : Advanced Video Codec
Format profile              : High@L4.1
Format settings, CABAC      : Yes
Format settings, ReFrames   : 15 frames
Codec ID                    : avc1
Codec ID/Info               : Advanced Video Coding
Duration                    : 22mn 3s
Bit rate                    : 3 356 Kbps
Maximum bit rate            : 13.6 Mbps
Width                       : 1 280 pixels
Height                      : 720 pixels
Display aspect ratio        : 16:9
Frame rate mode             : Constant
Frame rate                  : 23.976 fps
Color space                 : YUV
Chroma subsampling          : 4:2:0
Bit depth                   : 8 bits
Scan type                   : Progressive
Bits/(Pixel*Frame)          : 0.152
Stream size                 : 529 MiB (91%)
Writing library             : x264 core 144 r2525M 40bb568
Encoding settings           : cabac=1 / ref=16 / deblock=1:-3:-3 / analyse=0x3:0x133 / me=umh / subme=9 / psy=1 / psy_rd=0,40:0,20 / mixed_ref=1 / me_range=24 / chroma_me=1 / trellis=2 / 8x8dct=1 / cqm=0 / deadzone=21,11 / fast_pskip=1 / chroma_qp_offset=-3 / threads=6 / lookahead_threads=1 / sliced_threads=0 / nr=0 / decimate=1 / interlaced=0 / bluray_compat=0 / constrained_intra=0 / bframes=5 / b_pyramid=1 / b_adapt=2 / b_bias=0 / direct=3 / weightb=1 / open_gop=0 / weightp=2 / keyint=230 / keyint_min=23 / scenecut=40 / intra_refresh=0 / rc_lookahead=0 / rc=2pass / mbtree=0 / bitrate=3356 / ratetol=1,0 / qcomp=0,60 / qpmin=10 / qpmax=51 / qpstep=4 / cplxblur=20,0 / qblur=0,5 / vbv_maxrate=31250 / vbv_bufsize=31250 / nal_hrd=none / filler=0 / ip_ratio=1,40 / pb_ratio=1,30 / aq=1:0,60
Language                    : English
Tagged date                 : UTC 2015-03-04 09:36:32
Audio #1
ID                          : 2
Format                      : AC-3
Format/Info                 : Audio Coding 3
Mode extension              : CM (complete main)
Format settings, Endianness : Big
Codec ID                    : ac-3
Duration                    : 22mn 3s
Bit rate mode               : Constant
Bit rate                    : 192 Kbps
Channel(s)                  : 2 channels
Channel positions           : Front: L R
Sampling rate               : 48.0 KHz
Bit depth                   : 16 bits
Compression mode            : Lossy
Stream size                 : 30.3 MiB (5%)
Language                    : Russian
Encoded date                : UTC 2015-03-04 09:36:31
Tagged date                 : UTC 2015-03-04 09:36:32
Audio #2
ID                          : 3
Format                      : AAC
Format/Info                 : Advanced Audio Codec
Format profile              : HE-AAC / LC
Codec ID                    : 40
Duration                    : 22mn 3s
Bit rate mode               : Variable
Bit rate                    : 127 Kbps
Maximum bit rate            : 137 Kbps
Channel(s)                  : 2 channels
Channel positions           : Front: L R
Sampling rate               : 48.0 KHz / 24.0 KHz
Compression mode            : Lossy
Stream size                 : 20.0 MiB (3%)
Language                    : English
Encoded date                : UTC 2015-03-04 09:36:31
Tagged date                 : UTC 2015-03-04 09:36:32
-Скриншоты:


Смотреть онлайн

[trackeroc.ru].8882.torrent 
Торрент: Зарегистрирован   [ 2016-06-18 16:58 ]

Скачать торрент

30 KB

Статус: проверено
Скачан: 72 раз
Размер: 5.35 GB
 

Admin (18-окт-15)
Похожие торренты
Форум Тема Автор Размер
Зарубежные сериалы Эш против Зловещих мертвецов / Ash vs Evil Dead (2016) WEBRip (сезон 2, серии 1-7 из 10) Пучков BiOS 2.2 GB
Зарубежные Мультсериалы Монстры против Пришельцев / Monsters vs. Aliens (2013) WEB-DL [H.264/720p] (Сезон 1 , серии 52 из 52) BiOS 19.07 GB
Зарубежные Мультсериалы Стар против сил зла / Star vs. The Forces of Evil (2015) WEB-DL (Сезон 2, серии 1-5 из 22) BiOS 4.26 GB
Фантастика Фэнтези Бэтмен против Супермена: На заре справедливости (Расширенная версия) / Batman v Superman: Dawn of Justice (Extended Ultimate Edition) (2016) WEB-DL [H.264/1080p-LQ] [RU/EN Sub] BiOS 6.71 GB
Фантастика Фэнтези Бэтмен против Супермена: На заре справедливости / Batman v Superman: Dawn of Justice (2016) WEB-DLRip [Line] Admin 2.05 GB

_________________
[Профиль] [ЛС]
Показать сообщения:    
Ответить на тему

Текущее время: Сегодня 14:30

Часовой пояс: GMT + 4



Вы не можете начинать темы
Вы не можете отвечать на сообщения
Вы не можете редактировать свои сообщения
Вы не можете удалять свои сообщения
Вы не можете голосовать в опросах
Вы не можете прикреплять файлы к сообщениям
Вы можете скачивать файлы