StarСraft II: Legacy of the Void (2015) WEBRip [H.264/1080p-LQ]

Ответить на тему

Статистика раздачи [Обновить пиров]
Размер:  2.92 GB   |    Зарегистрирован:  1 год   |    Скачан:  2 раза
Сидов:  1  [  0 KB/s  ]   Подробная статистика пиров
   
 
Автор Сообщение

BiOS ®

Стаж: 2 года 7 месяцев

Сообщений: 1730

Откуда: Raccoon City


Пост 26-Ноя-2015 11:43

[Цитировать]

StarСraft II: Legacy of the Void - Жанр: Фантастика, Игровое видео
Описание:
StarCraft 2: Legacy of the Void - это третья, и заключительная часть культовой стратегии в реальном времени, события которой разворачиваются параллельно с Heart of the Swarm и после его окончания. Главным героем этой части вновь станет Зератул, однако игрокам предстоит взять на себя роль не лидера Темных Тамплиеров Протоссов, а Артаниса, командира протоссов, который надеется отбить родную планету протоссов - Айур - у зергов, а затем помочь Зератулу с разгадкой древнего пророчества, от которого зависит судьба всей вселенной. Игроков ждет не только сюжетная кампания за протоссов длинной более двух десятков миссий, но и специальный пролог под названием "Предчувствие Тьмы" (Whispers of Oblivion в оригинале), в котором на протяжении трех миссий Зератулу предстоит найти последний фрагмент некогда утраченного пророчества Ксел'нага. Многопользовательский режим в очередной раз пополнится шестью уникальными юнитами - по два для каждой стороны конфликта - новыми картами, и, разумеется, новыми тактиками и стратегиями для победы.
Продолжительность: 03:15:00
Качество видео: WEBRip
Перевод: Дублированный
Видео: AVC/H.264, 1920x1080, ~2010 Кбит/сек
Аудио: AAC, 2 ch, 126 Кбит/сек, CBR

Mediainfo:

Код:
Общее
Полное имя                               : X:\Films\StarCraft 2 Legacy of the void ИГРОФИЛЬМ.mp4
Формат                                   : MPEG-4
Профиль формата                          : Base Media
Идентификатор кодека                     : isom
Размер файла                             : 2,92 Гбайт
Продолжительность                        : 3 ч. 14 м.
Общий поток                              : 2144 Кбит/сек
Программа кодирования                    : Lavf57.2.100
Видео
Идентификатор                            : 1
Формат                                   : AVC
Формат/Информация                        : Advanced Video Codec
Профиль формата                          : High@L4
Параметр CABAC формата                   : Да
Параметр ReFrames формата                : 3 кадра
Идентификатор кодека                     : avc1
Идентификатор кодека/Информация          : Advanced Video Coding
Продолжительность                        : 3 ч. 14 м.
Битрейт                                  : 2010 Кбит/сек
Ширина                                   : 1920 пикселей
Высота                                   : 1080 пикселей
Соотношение сторон                       : 16:9
Режим частоты кадров                     : Постоянный
Частота кадров                           : 29,970 кадров/сек
Цветовое пространство                    : YUV
Субдискретизация насыщенности            : 4:2:0
Битовая глубина                          : 8 бит
Тип развёртки                            : Прогрессивная
Бит/(Пиксели*Кадры)                      : 0.032
Размер потока                            : 2,74 Гбайт (94%)
Аудио
Идентификатор                            : 2
Формат                                   : AAC
Формат/Информация                        : Advanced Audio Codec
Профиль формата                          : LC
Идентификатор кодека                     : 40
Продолжительность                        : 3 ч. 14 м.
Вид битрейта                             : Постоянный
Битрейт                                  : 126 Кбит/сек
Каналы                                   : 2 канала
Расположение каналов                     : Front: L R
Частота                                  : 44,1 КГц
Метод сжатия                             : С потерями
Размер потока                            : 175 Мбайт (6%)
-Скриншоты:


[trackeroc.ru].10051.torrent 
 СЕРЕБРЯНАЯ РАЗДАЧА! СКАЧАННОЕ ЗАСЧИТЫВАЕТСЯ ТОЛЬКО НАПОЛОВИНУ! 
Торрент: Зарегистрирован   [ 2015-11-26 11:43 ]

Скачать торрент

15 KB

Статус: проверено
Скачан: 30 раз
Размер: 2.92 GB
 

Admin (26-ноя-15)
Похожие торренты
Форум Тема Автор Размер
Квесты , я ищу , Поиск предметов Hidden Object Witches' Legacy 6: The Dark Throne CE/Наследие ведьм 6. Темный трон (2015) (Big Fish Games) (RUS) [P] HOPE 1.31 GB
Квесты , я ищу , Поиск предметов Hidden Object Witches' Legacy 5: Slumbering Darkness CE /Наследие ведьм 5. Дремлющая темнота (2015) (Big Fish Games) (RUS) [P] HOPE 990 MB
Квесты , я ищу , Поиск предметов Hidden Object Witches Legacy 4: The Ties That Bind CE / Наследие ведьм 4: Родственные узы КИ [P] [RUS / ENG] (2014) HOPE 1.1 GB
Приключенческие игры Adventure Grimm: Dark Legacy (2016) (ENG) SKIDROW Admin 1.25 GB
Сборники игр Антологии Legacy of Kain Аnthology (1999-2003) [Ru/En] License GOG BiOS 3.51 GB

_________________
[Профиль] [ЛС]
Показать сообщения:    
Ответить на тему

Текущее время: Сегодня 18:01

Часовой пояс: GMT + 4



Вы не можете начинать темы
Вы не можете отвечать на сообщения
Вы не можете редактировать свои сообщения
Вы не можете удалять свои сообщения
Вы не можете голосовать в опросах
Вы не можете прикреплять файлы к сообщениям
Вы можете скачивать файлы