Страшные сказки: Город ангелов / Penny Dreadful: City of Angels (2020) WEB-DLRip (сезон 1, серии 1-4 из 8) Amedia скачать торрент

Reply to topic

DL-List and Torrent activity [Update пиров]
Size:  3.31 GB   |    Registered:  4 days   |    Completed:  0 times
Seeders:  1  [  0 KB/s  ]   Show peers in full details
 
 
 
 
Author Message

Captain ®

Longevity: 6 years 1 month

Posts: 2462

Location: Earth


Post 13-May-2020 00:51

[Quote]

Страшные сказки: Город ангелов / Penny Dreadful: City of Angels - Производство: США, Desert Wolf Productions
Жанр: ужасы, фэнтези, триллер, драма
Режиссер: Пако Кабесас, Роксанн Доусон, Шери Фоксон
Актеры: Натали Дормер, Дэниэл Дзоватто, Адриана Барраса, Джессика Гарза, Джонатан Нивз, Рори Киннер, Натан Лэйн, Майкл Глэдис, Себастьян Чакон, Доминик Шервуд
Описание:
Проект переносит зрителей в тридцать девятый год. Лос-Анджелес становится центром противостояния двух организаций, не готовых делить друг с другом влияние и территорию. Американский город погряз в преступлениях, организованных то культом Санта Муэрте,то поклонниками дьявола. За расследование убийств берётся Тиаго Вега, человек, который уже не первый год работает в полиции. Ранее ему не доводилось втягиваться в столь запутанные дела, однако в этот раз ему предстоит с по-настоящему могущественной силой, чье влияние выходит далеко за рамки привычного нам мировоззрения. Угроза нависает не только над жизнью Тиаго, но и над его близкими и родными. Что же будет делать главный персонаж дальше? Удастся ли ему остановить культы, способные повлиять на ход мировой истории?

Дата мировой премьеры: 26 апреля 2020
Дата премьеры в России: 27 апреля 2020
Релиз от: R.G KaPaTeJL6
Продолжительность: ~01:08:00 серия
Качество видео: WEB-DLRip
Перевод: Многоголосый профессиональный (Amedia)
Субтитры: Русские, английские (отдельными файлами)
Видео: Xvid, 720x400 (16:9), ~1500 kbps
Аудио 1: AC3, 2 ch, 192 kbps - русский
Аудио 2: AC3, 2 ch, 192 kbps - английский

MediaInfo:

Общее
Полное имя : 01. Penny.Dreadful.City.of.Angels.Amedia.avi
Формат : AVI
Формат/Информация : Audio Video Interleave
Размер файла : 921 Мбайт
Продолжительность : 1 ч. 7 м.
Общий поток : 1894 Кбит/сек
Видео
Идентификатор : 0
Формат : MPEG-4 Visual
Профиль формата : Advanced Simple@L1
Настройки формата : BVOP3
Параметр BVOP формата : 3
Параметр QPel формата : Нет
Параметр GMC формата : Без точки перехода
Параметр матрицы формата : Default (H.263)
Идентификатор кодека : XVID
Идентификатор кодека/Подсказка : XviD
Продолжительность : 1 ч. 7 м.
Битрейт : 1500 Кбит/сек
Ширина : 720 пикселей
Высота : 400 пикселей
Соотношение сторон : 16:9
Частота кадров : 23,976 (24000/1001) кадра/сек
Цветовое пространство : YUV
Субдискретизация насыщенности : 4:2:0
Битовая глубина : 8 бит
Тип развёртки : Прогрессивная
Метод сжатия : С потерями
Бит/(Пиксели*Кадры) : 0.217
Размер потока : 729 Мбайт (79%)
Библиотека кодирования : Lavc58.68.102
Аудио #1
Идентификатор : 1
Формат : AC-3
Формат/Информация : Audio Coding 3
Коммерческое название : Dolby Digital
Идентификатор кодека : 2000
Продолжительность : 1 ч. 7 м.
Вид битрейта : Постоянный
Битрейт : 192 Кбит/сек
Каналы : 2 канала
ChannelLayout : L R
Частота : 48,0 КГц
Частота кадров : 31,250 кадров/сек (1536 SPF)
Метод сжатия : С потерями
Размер потока : 93,4 Мбайт (10%)
Выравнивание : Соединение по промежуткам
Продолжительность промежутка : 64 мс. (1,53 видеокадра)
Время предзагрузки промежутка : 192 мс.
Заголовок : Untitled
ServiceKind/String : Complete Main
Аудио #2
Идентификатор : 2
Формат : AC-3
Формат/Информация : Audio Coding 3
Коммерческое название : Dolby Digital
Идентификатор кодека : 2000
Продолжительность : 1 ч. 7 м.
Вид битрейта : Постоянный
Битрейт : 192 Кбит/сек
Каналы : 2 канала
ChannelLayout : L R
Частота : 48,0 КГц
Частота кадров : 31,250 кадров/сек (1536 SPF)
Метод сжатия : С потерями
Размер потока : 93,4 Мбайт (10%)
Выравнивание : Соединение по промежуткам
Продолжительность промежутка : 64 мс. (1,53 видеокадра)
Время предзагрузки промежутка : 192 мс.
Заголовок : Penny.Dreadful.City.of.Angels.S01E01.Santa.Muerte.720p.AMZN.WEB-DL.DDP5.1.H.264-NTG
ServiceKind/String : Complete Main
-Скриншоты:


Смотреть онлайн

[trackeroc.org].30603.torrent 
Torrent: Registered   [ 2020-05-27 09:54 ]

Скачать торрент

19 KB

Status: * not checked
Completed: 12 times
Size: 3.31 GB
 

Admin (13-май-20)

Similar torrent
Forum Topic Author Size
Отечественные Мультсериалы Маша и медведь (сезон 1-3, серии 1-78 из 78), (сезон 4, серии 1-11 из 26) + Машины сказки / Машкины страшилки / Машины песенки / Бонус (2009-2020) WEB-DLRip [Обновляемая] Admin 15.8 GB
Квесты, я ищу, Поиск предметов, Hidden Object The Forgotten Fairy Tales: The Spectra World / Забытые сказки: Мир Спектры (2017) (RUS) Admin 1.49 GB
Квесты, я ищу, Поиск предметов, Hidden Object Grim Tales 18: The Generous Gift / Страшные сказки 18: Щедрый подарок (2020) [Ru] (1.0) [Коллекционное издание] Captain 767 MB
Квесты, я ищу, Поиск предметов, Hidden Object Grim Tales 18: The Generous Gift / Страшные сказки 18: Щедрый подарок (2020) [Ru/En] (1.0) Admin 1.41 GB

_________________
[Profile] [PM]
Display posts from previous:    
Reply to topic

The time now is: Today 20:00

All times are GMT + 4 Hours



You cannot post new topics in this forum
You cannot reply to topics in this forum
You cannot edit your posts in this forum
You cannot delete your posts in this forum
You cannot vote in polls in this forum
You cannot attach files in this forum
You can download files in this forum