Сумеречные охотники / Shadowhunters (2016) WEB-DLRip (сезон 1, серии 1-13 из 13) OMSKBIRD records

Ответить на тему

Статистика раздачи [Обновить пиров]
Скачали
Размер:  11.62 GB   |    Зарегистрирован:  2 месяца 10 дней   |    Скачан:  1 раз

Полного источника не было: 25 дней

 
 
 
 
Автор Сообщение

BiOS ®

Стаж: 2 года 7 месяцев

Сообщений: 1732

Откуда: Raccoon City


Пост 16-Янв-2016 13:57

[Цитировать]

Сумеречные охотники / Shadowhunters
«All the legends are true»
- Производство: США, Constantin Film, Don Carmody Television, Unique Features
Жанр: фэнтези, боевик, драма
Режиссер: Майрзи Алмас, Тауния Маккирнан, Энди Волк, Оз Скотт
Актеры: Кэтрин МакНамара, Доминик Шервуд, Альберто Розенде, Алан Ван Спрэнг, Джон Кор, Кейтлин Вонг, Мими Кузык и др.
Описание:
Невзрачная и ничем не примечательная девушка Клэри Фрэй в свой 18-й день рождения узнает, что она является наследницей древнего семейства Сумеречных Охотников — таинственного клана полулюдей-полуангелов, которые обороняют мир от демонических тварей. После похищения матери девушка вместе со своим другом Саймоном и сумеречным охотником Джейсом пытается ее спасти и… попадает в другую реальность.
Дата мировой премьеры: 12 января 2016
Продолжительность: ~ 00:40:00 серия
Качество видео: WEB-DLRip
Перевод: Многоголосый закадровый, профессиональный - OMSKBIRD records
Видео: Xvid, 720x400 (16:9), ~2002 kbps
Аудио # 1 Rus: AC3, 6 ch, 384 kbps, CBR - многоголосый закадровый
Аудио # 2 Eng: AC3, 6 ch, 384 kbps, CBR - оригинал

Mediainfo:

Код:
Общее
Формат/Информация                        : Audio Video Interleave
Размер файла                             : 790 Мбайт
Продолжительность                        : 39 м.
Общий поток                              : 2785 Кбит/сек
Программа кодирования                    : VirtualDubMod 1.5.10.3 (build 2550/release)
Библиотека кодирования                   : VirtualDubMod build 2550/release
Видео
Идентификатор                            : 0
Формат                                   : MPEG-4 Visual
Профиль формата                          : Advanced Simple@L5
Параметр BVOP формата                    : 1
Параметр QPel формата                    : Нет
Параметр GMC формата                     : Без точки перехода
Параметр матрицы формата                 : Default (MPEG)
Идентификатор кодека                     : XVID
Идентификатор кодека/Подсказка           : XviD
Продолжительность                        : 39 м.
Битрейт                                  : 2003 Кбит/сек
Ширина                                   : 720 пикселей
Высота                                   : 400 пикселей
Соотношение сторон                       : 16:9
Частота кадров                           : 23,976 (23976/1000) кадра/сек
Цветовое пространство                    : YUV
Субдискретизация насыщенности            : 4:2:0
Битовая глубина                          : 8 бит
Тип развёртки                            : Прогрессивная
Метод сжатия                             : С потерями
Бит/(Пиксели*Кадры)                      : 0.290
Размер потока                            : 568 Мбайт (72%)
Библиотека кодирования                   : XviD 73
Аудио #1
Идентификатор                            : 1
Формат                                   : AC-3
Формат/Информация                        : Audio Coding 3
Расширение режима                        : CM (complete main)
Параметр Endianness формата              : Big
Идентификатор кодека                     : 2000
Продолжительность                        : 39 м.
Вид битрейта                             : Постоянный
Битрейт                                  : 384 Кбит/сек
Каналы                                   : 6 каналов
Расположение каналов                     : Front: L C R, Side: L R, LFE
Частота                                  : 48,0 КГц
Частота кадров                           : 31,250 кадров/сек (1536 spf)
Метод сжатия                             : С потерями
Размер потока                            : 109 Мбайт (14%)
Выравнивание                             : Разделение по промежуткам
Продолжительность промежутка             : 42  мс. (1,00 видеокадр)
Время предзагрузки промежутка            : 500  мс.
Аудио #2
Идентификатор                            : 2
Формат                                   : AC-3
Формат/Информация                        : Audio Coding 3
Расширение режима                        : CM (complete main)
Параметр Endianness формата              : Big
Идентификатор кодека                     : 2000
Продолжительность                        : 39 м.
Вид битрейта                             : Постоянный
Битрейт                                  : 384 Кбит/сек
Каналы                                   : 6 каналов
Расположение каналов                     : Front: L C R, Side: L R, LFE
Частота                                  : 48,0 КГц
Частота кадров                           : 31,250 кадров/сек (1536 spf)
Метод сжатия                             : С потерями
Размер потока                            : 109 Мбайт (14%)
Выравнивание                             : Разделение по промежуткам
Продолжительность промежутка             : 42  мс. (1,00 видеокадр)
Время предзагрузки промежутка            : 500  мс.

Релиз подготовил:

Релиз-группа: OMSKBIRD records
Релиз подготовил:Grandfather61 (Skyns61)
Роли озвучивали: Александр Дасевич, Владислав Данилов и Алена Соколова
Перевод:Дмитрий Микушин
Звукорежиссер: Павел Ярощик
Постер: Ксения Просветова
Сборка, работа со звуком и видео: Grandfather61 (Skyns61)
-Скриншоты:


Смотреть онлайн

[trackeroc.ru].11015.torrent 
Торрент: Зарегистрирован   [ 2016-09-23 10:05 ]

Скачать торрент

33 KB

Статус: проверено
Скачан: 5 раз
Размер: 11.62 GB
 

Admin (16-янв-16)
Похожие торренты
Форум Тема Автор Размер
Квесты , я ищу , Поиск предметов Hidden Object Mystery Trackers 9: Winterpoint Tragedy Collector's Edition / Охотники за тайнами. Арктическая трагедия.[P] [RUS / RUS] (2015) HOPE 1.01 GB
Зарубежные сериалы Сумеречные охотники / Shadowhunters (2016) WEB-DLRip (сезон 1, серии 1-13 из 13) NewStudio BiOS 6.79 GB
Фантастика Фэнтези Охотники за привидениями / Ghostbusters (2016) WEB-DLRip | iTunes Admin 1.37 GB
Квесты , я ищу , Поиск предметов Hidden Object Mystery Trackers 11: Train to Hellswich [CE] / Охотники за тайнами 11: Поезд до Хеллсвича [КИ] [P] [RUS / ENG] (2016) HOPE 866 MB

_________________


Последний раз редактировалось: BiOS (2016-09-23 10:06), всего редактировалось 5 раз(а)
[Профиль] [ЛС]

BiOS ®

Стаж: 2 года 7 месяцев

Сообщений: 1732

Откуда: Raccoon City


Пост 16-Янв-2016 16:51 (спустя 2 часа 54 минуты)

[Цитировать]

Сериал по фильму Орудия смерти: Город костей http://trackeroc.ru/viewtopic.php?t=5911 

_________________
[Профиль] [ЛС]
Показать сообщения:    
Ответить на тему

Текущее время: Сегодня 07:47

Часовой пояс: GMT + 4



Вы не можете начинать темы
Вы не можете отвечать на сообщения
Вы не можете редактировать свои сообщения
Вы не можете удалять свои сообщения
Вы не можете голосовать в опросах
Вы не можете прикреплять файлы к сообщениям
Вы можете скачивать файлы