Сверхъестественное / Supernatural (2005-2015) WEB-DLRip (Сезон 1-10, серии 1-217 из 217) LostFilm [AVI|320x178]

Ответить на тему

Статистика раздачи [Обновить пиров]
Размер:  24.72 GB   |    Зарегистрирован:  9 месяцев 1 день   |    Скачан:  1 раз

Полного источника не было: 5 месяцев 29 дней

Личеров:  1  [  0 KB/s  ]   Подробная статистика пиров
 
 
 
 
Автор Сообщение

BiOS ®

Стаж: 2 года 7 месяцев

Сообщений: 1730

Откуда: Raccoon City


Пост 05-Мар-2016 16:33

[Цитировать]

Сверхъестественное / Supernatural (2005-2015) (Сезон 1-10, серии 1-217 из 217)
«Небесная справедливость в действии»
- Производство: США / Kripke Enterprises, Warner Bros. Pictures Co., Warner Bros. Television, Wonderland Sound and Vision
Жанр: Ужасы, Фэнтези, Драма
Режиссер: Эрик Крипке, Филип Сгриккиа, Роберт Сингер, Сара Гэмбл
Актеры: Джаред Падалеки, Дженсен Эклс, Джим Бивер, Миша Коллинз, Марк Шеппард, Марк Пеллегрино, Женевьев Падалеки, Кэти Кэссиди, Джеймс Патрик Стюарт, Саманта Феррис и др.
Описание:
Сериал рассказывает о приключениях братьев Сэма и Дина Винчестеров, которые путешествуют по Соединённым Штатам на чёрном автомобиле Chevrolet Impala 1967 года, расследуют паранормальные явления, многие из которых основаны на американских городских легендах и фольклоре, и сражаются с порождениями зла, такими как демоны и призраки.
Продолжительность: ~ 00:42:00 серия
Качество видео: WEB-DLRip
Перевод: Профессиональный (многоголосый, закадровый) - LostFilm
Видео: Xvid, 320x178 (16:9), ~350 Кбит/сек
Аудио: MPEG Layer 3, 2 канала, 93 Кбит/сек

Mediainfo:

Код:
Общее
Полное имя                               : С:\Supernatural.S09E02.LostFilm.320x.kpk.by.NeoJet.avi
Формат                                   : AVI
Формат/Информация                        : Audio Video Interleave
Размер файла                             : 127 Мбайт
Продолжительность                        : 41 м.
Режим общего битрейта                    : Переменный
Общий поток                              : 428 Кбит/сек
Программа кодирования                    : MEncoder SVN-r31918
Библиотека кодирования                   : MPlayer
Видео
Идентификатор                            : 0
Формат                                   : MPEG-4 Visual
Профиль формата                          : Advanced Simple@L5
Параметр BVOP формата                    : 2
Параметр QPel формата                    : Нет
Параметр GMC формата                     : Без точки перехода
Параметр матрицы формата                 : Default (H.263)
Идентификатор кодека                     : XVID
Идентификатор кодека/Подсказка           : XviD
Продолжительность                        : 41 м.
Битрейт                                  : 322 Кбит/сек
Ширина                                   : 320 пикселей
Высота                                   : 178 пикселей
Соотношение сторон                       : 16:9
Частота кадров                           : 23,976 кадра/сек
Цветовое пространство                    : YUV
Субдискретизация насыщенности            : 4:2:0
Битовая глубина                          : 8 бит
Тип развёртки                            : Прогрессивная
Метод сжатия                             : С потерями
Бит/(Пиксели*Кадры)                      : 0.236
Размер потока                            : 95,8 Мбайт (75%)
Библиотека кодирования                   : XviD 1.2.1 (UTC 2008-12-04)
Аудио
Идентификатор                            : 1
Формат                                   : MPEG Audio
Версия формата                           : Version 1
Профиль формата                          : Layer 3
Идентификатор кодека                     : 55
Идентификатор кодека/Подсказка           : MP3
Продолжительность                        : 41 м.
Вид битрейта                             : Переменный
Битрейт                                  : 93,2 Кбит/сек
Каналы                                   : 2 канала
Частота                                  : 48,0 КГц
Метод сжатия                             : С потерями
Размер потока                            : 27,7 Мбайт (22%)
Выравнивание                             : Соединение по промежуткам
Продолжительность промежутка             : 24  мс. (0,58 видеокадр)
Время предзагрузки промежутка            : 539  мс.
-Скриншоты:


Смотреть онлайн

[trackerock.ru].11948.torrent 
Торрент: Зарегистрирован   [ 2016-03-05 16:33 ]

Скачать торрент

515 KB

Статус: проверено
Скачан: 6 раз
Размер: 24.72 GB
 

Admin (05-мар-16)
Похожие торренты
Форум Тема Автор Размер
Зарубежные сериалы Сверхъестественное / Supernatural / Сезон: 12 / WEB-DLRip (серии 1-7 из 23) BiOS 3.1 GB
Зарубежные сериалы Сверхъестественное / Supernatural (2005-2015) BDRemux [H.264/1080p] (сезон 1-10, серии 1-218 из 218) Рен-ТВ, Пятница, NovaFilm, LostFilm BiOS 1.177 TB
Зарубежные сериалы Сверхъестественное / Supernatural / Сезон: 11 / Серии: 1-23 (23) Admin 10.25 GB
Зарубежные сериалы Сверхъестественное / Supernatural / Сезон: 10 / Серии: 1-23 (23) Angel 9.37 GB

_________________
[Профиль] [ЛС]
Показать сообщения:    
Ответить на тему

Текущее время: Сегодня 23:43

Часовой пояс: GMT + 4



Вы не можете начинать темы
Вы не можете отвечать на сообщения
Вы не можете редактировать свои сообщения
Вы не можете удалять свои сообщения
Вы не можете голосовать в опросах
Вы не можете прикреплять файлы к сообщениям
Вы можете скачивать файлы