Сверхъестественное / Supernatural / Сезон: 8 / Серии: 1-23 (23)

Ответить на тему
 
Автор Сообщение

Angel ®

Стаж: 1 год 10 месяцев

Сообщений: 31


Пост 13-Авг-2015 09:56

[Цитировать]

--Сверхъестественное / Supernatural-- Год выпуска: 2012
Страна: США
Жанр: ужасы, фэнтези, триллер, драма, детектив
Продолжительность: ~00:41:00
Перевод: Профессиональный (многоголосый закадровый) [NovaFilm]-Режиссёр: Eric Kripke / Эрик Крипке, Robert Singer / Роберт Сингер-В ролях: Джаред Падалеки, Дженсен Эклс, Джим Бивер, Миша Коллинз, Марк Шеппард, Джеффри Дин Морган, Женевьев Падалеки, Синди Сэмпсон, Саманта Феррис, Митч Пилледжи-Описание: Когда-то в городе Лоуренс, штат Канзас, вместе со своими малолетними сыновьями, мирно жила чета Винчестеров. Но буквально за один день жизнь этих людей изменилась навсегда, дом сгорел, в огне пожара погибла Мэри Винчестер — любящая мать и любимая жена. Четырехлетний Дин Винчестер вынес из огня своего шестимесячного братишку и с тех пор стал для него ангелом хранителем, готовым на все ради безопасности младшего брата. А Джон Винчестер из простого рабочего гаража, превратился в смелого охотника за нечистью, одержимого идеей отомстить за смерть жены. С этой мыслью он воспитывал своих сыновей, ставших искусными бойцами, сражающимися плечом к плечу с отцом.
И именно из Лоуренса началось бесконечное путешествие семьи Винчестеров по бескрайним просторам Америки в поисках людей, которым необходима помощь, кому не откуда ждать подмоги и не на кого рассчитывать, когда в их жизнь железной поступью ворвалось сверхъестественное.- -Качество: WEB-DLRip
Формат: AVI
Видео кодек: XviD
Аудио кодек: AC3
Видео: 720x400, XviD - MPEG-4 ~1110 Кбит/с
Аудио: AC3, 2 канала, 192 Кбит/с
-

MediaInfo

supernatural
Format : AVI
Format/Info : Audio Video Interleave
File size : 400 MiB
Duration : 42mn 28s
Overall bit rate : 1 317 Kbps
Writing application : VirtualDubMod 1.5.10.2 (build 2542/release)
Writing library : VirtualDubMod build 2542/release
Video
ID : 0
Format : MPEG-4 Visual
Format profile : Advanced Simple@L5
Format settings, BVOP : 2
Format settings, QPel : No
Format settings, GMC : No warppoints
Format settings, Matrix : Default (H.263)
Muxing mode : Packed bitstream
Codec ID : XVID
Codec ID/Hint : XviD
Duration : 42mn 28s
Bit rate : 1 115 Kbps
Width : 720 pixels
Height : 400 pixels
Display aspect ratio : 16:9
Frame rate : 23.976 fps
Color space : YUV
Chroma subsampling : 4:2:0
Bit depth : 8 bits
Scan type : Progressive
Compression mode : Lossy
Bits/(Pixel*Frame) : 0.161
Stream size : 339 MiB (85%)
Writing library : XviD 64
Audio
ID : 1
Format : AC-3
Format/Info : Audio Coding 3
Mode extension : CM (complete main)
Format settings, Endianness : Big
Codec ID : 2000
Duration : 42mn 27s
Bit rate mode : Constant
Bit rate : 192 Kbps
Channel(s) : 2 channels
Channel positions : Front: L R
Sampling rate : 48.0 KHz
Bit depth : 16 bits
Compression mode : Lossy
Stream size : 58.3 MiB (15%)
Alignment : Split accross interleaves
Interleave, duration : 42 ms (1.00 video frame)
Interleave, preload duration : 500 ms
-

Скриншоты




Смотреть онлайн


[trackeroc.ru].7493.torrent 
Торрент: Зарегистрирован   [ 2015-08-13 09:58 ]

Скачать торрент

25 KB

Статус: проверено
Скачан: 11 раз
Размер: 9.04 GB
 

BiOS (13-авг-15)
Похожие торренты
Форум Тема Автор Размер
Зарубежные сериалы Сверхъестественное / Supernatural / Сезон: 12 / WEB-DLRip (серии 1-23 из 23) LostFilm BiOS 11.24 GB
Зарубежные сериалы Сверхъестественное / Supernatural (2005-2015) BDRemux [H.264/1080p] (сезон 1-10, серии 1-218 из 218) Рен-ТВ, Пятница, NovaFilm, LostFilm BiOS 1.177 TB
Зарубежные сериалы Сверхъестественное / Supernatural / Сезон: 11 / Серии: 1-23 (23) Admin 10.25 GB
Зарубежные сериалы Сверхъестественное / Supernatural (2005-2015) WEB-DLRip (Сезон 1-10, серии 1-217 из 217) LostFilm [AVI|320x178] BiOS 24.72 GB
Зарубежные сериалы Сверхъестественное / Supernatural / Сезон: 10 / Серии: 1-23 (23) Angel 9.37 GB
[Профиль] [ЛС]
Показать сообщения:    
Ответить на тему

Текущее время: Сегодня 11:12

Часовой пояс: GMT + 4



Вы не можете начинать темы
Вы не можете отвечать на сообщения
Вы не можете редактировать свои сообщения
Вы не можете удалять свои сообщения
Вы не можете голосовать в опросах
Вы не можете прикреплять файлы к сообщениям
Вы можете скачивать файлы