Сыны Анархии / Sons of Anarchy / Сезон: 1-7 / Серии: 1-92 из 92 (Пэрис Барклай) [2008-2014, драма, WEB-DLRip]

Ответить на тему

Статистика раздачи [Обновить пиров]
Размер:  54.26 GB   |    Зарегистрирован:  1 год 4 месяца   |    Скачан:  6 раз

Полного источника не было: 14 часов

 
 
 
 
Автор Сообщение

Admin ®

Стаж: 7 месяцев 12 дней

Сообщений: 4451

Откуда: trackeroc.ru


Пост 16-Июл-2015 13:33

[Цитировать]

Сыны Анархии / Sons of Anarchy
Год выпуска: 2008
Страна: США
Жанр: драма
Продолжительность: ~55 минут
Перевод: Профессиональный (многоголосый закадровый) LostFilm
Русские субтитры: нет
Режиссёр: Пэрис Барклай
В ролях: Чарли Ханнэм, Кэти Сагал, Марк Бун Джуниор, Ким Коутс, Томми Флэнаган, Мэгги Сифф, Рон Перлман, Тео Росси, Уильям Лаккинг, Райан Херст и др.
Описание: «Сыны Анархии» — сериал рассказывает о клубе байкеров, которые пытаются защитить свой городок от наркотиков и влияния извне, хотя сами грешат торговлей оружием. Секс, наркотики и рок-н-ролл, любовь, насилие и смысл жизни – вокруг этих проблем бытия закручен сюжет «Сынов».
Сэмпл: http://multi-up.com/1009381
Качество: WEB-DLRip
Формат: AVI
Видео кодек: XviD
Аудио кодек: MP3
Видео: 720x400 (16:9), 23.976 fps, ~1915 kbps, ~0.277 bit/pixel
Аудио: 48 kHz, 2 ch, ~128 kbps
Субтитры: отсутствуют

MediaInfo

Формат : AVI
Формат/Информация : Audio Video Interleave
Размер файла : 550 Мбайт
Продолжительность : 51 м.
Общий поток : 1483 Кбит/сек
Программа кодирования : Nandub v1.0rc2
Библиотека кодирования : Nandub build 1853/release
Видео
Идентификатор : 0
Формат : MPEG-4 Visual
Профиль формата : Advanced Simple@L5
Параметр BVOP формата : 1
Параметр QPel формата : Нет
Параметр GMC формата : Без точки перехода
Параметр матрицы формата : Выборочная
Идентификатор кодека : XVID
Идентификатор кодека/Подсказка : XviD
Продолжительность : 51 м.
Битрейт : 1343 Кбит/сек
Ширина : 704 пикселя
Высота : 400 пикселей
Соотношение сторон : 16:9
Частота кадров : 23,976 кадра/сек
Цветовое пространство : YUV
Субдискретизация насыщенности : 4:2:0
Битовая глубина : 8 бит
Тип развёртки : Прогрессивная
Метод сжатия : С потерями
Бит/(Пиксели*Кадры) : 0.199
Размер потока : 498 Мбайт (91%)
Библиотека кодирования : XviD 64
Аудио
Идентификатор : 1
Формат : MPEG Audio
Версия формата : Version 1
Профиль формата : Layer 3
Режим : Joint stereo
Расширение режима : MS Stereo
Идентификатор кодека : 55
Идентификатор кодека/Подсказка : MP3
Продолжительность : 51 м.
Вид битрейта : Постоянный
Битрейт : 128 Кбит/сек
Каналы : 2 канала
Частота : 48,0 КГц
Метод сжатия : С потерями
Задержка видео : 1 мс.
Размер потока : 47,5 Мбайт (9%)
Выравнивание : Соединение по промежуткам
Продолжительность промежутка : 24 мс. (0,58 видеокадр)
Время предзагрузки промежутка : 481 мс.

Скриншоты



Смотреть онлайн

[trackeroc.ru].7026.torrent 
Торрент: Зарегистрирован   [ 2015-07-16 13:33 ]

Скачать торрент

145 KB

Статус: проверено
Скачан: 63 раз
Размер: 54.26 GB
 


_________________
[Профиль] [ЛС]
Показать сообщения:    
Ответить на тему

Текущее время: Сегодня 18:20

Часовой пояс: GMT + 4



Вы не можете начинать темы
Вы не можете отвечать на сообщения
Вы не можете редактировать свои сообщения
Вы не можете удалять свои сообщения
Вы не можете голосовать в опросах
Вы не можете прикреплять файлы к сообщениям
Вы можете скачивать файлы