Татьянина ночь [серии 1-9 из 9] (Виктор Бутурлин) [2014, Мелодрама, WEB-DLRip] скачать торрент

Ответить на тему

Статистика раздачи [Обновить пиров]
Размер:  6.15 GB   |    Зарегистрирован:  2 года   |    Скачан:  3 раза
Сидов:  14  [  0 KB/s  ]   Личеров:  5  [  0 KB/s  ]   Подробная статистика пиров
 
   
 
 
Автор Сообщение

Матвей ®

Стаж: 2 года

Сообщений: 224

Откуда: Челябинск


Пост 05-Окт-2015 18:10

[Цитировать]

Татьянина ночь (серии 1-9 из 9) --- Производство: Россия, Кинокомпания "Феникс-Фильм"
Жанр: Мелодрама
Режиссер: Виктор Бутурлин
Актеры: Кристина Бродская, Алексей Фатеев, Людмила Титова, Александр Феклистов, Ксения Радченко, Кристина Поли, Елена Махова, Оксана Мысина, Максим Январев, Алёна Кузнецова, Марина Куделинская, Наталья Новикова, Дмитрий Варшавский
Описание:
СССР, начало 80-х годов. Живёт в Москве интеллигентная семья Голубевых: отец – профессор МГУ Александр Голубев, мама – тренер по художественной гимнастике Лариса Алексеевна, дочь – красавица и одна из лучших студенток МГУ Таня Голубева. Вскоре Таню, как одну из лучших студенток курса, приглашают на собеседование в КГБ. От сотрудничества Таня отказывается. Она не знает, что «запала в сердце» майора КГБ Юрия Рогова: тот практически влюбился в Таню с первого взгляда...


Продолжительность: 9 х ~ 00:48:00
Качество видео: WEB-DLRip
Видео: Xvid, 720x400 (16:9), ~1885 Кбит/сек
Аудио: AC3, 2 ch, 192 Кбит/с, CBR

МИ

Код:
Общее
Полное имя                               : D:\МОЯ\torrent\Tatjanina.noch.2014\Tatjanina.noch.(01.seriya).2014.WEB-DLRip.avi
Формат                                   : AVI
Формат/Информация                        : Audio Video Interleave
Размер файла                             : 699 Мбайт
Продолжительность                        : 46 м.
Общий поток                              : 2087 Кбит/сек
Программа кодирования                    : VirtualDubMod 1.5.10.2 (build 2540/release)
Библиотека кодирования                   : VirtualDubMod build 2540/release
Видео
Идентификатор                            : 0
Формат                                   : MPEG-4 Visual
Профиль формата                          : Advanced Simple@L5
Параметр BVOP формата                    : 1
Параметр QPel формата                    : Нет
Параметр GMC формата                     : Без точки перехода
Параметр матрицы формата                 : Выборочная
Идентификатор кодека                     : XVID
Идентификатор кодека/Подсказка           : XviD
Продолжительность                        : 46 м.
Битрейт                                  : 1885 Кбит/сек
Ширина                                   : 720 пикселей
Высота                                   : 400 пикселей
Соотношение сторон                       : 16:9
Частота кадров                           : 25,000 кадров/сек
Цветовое пространство                    : YUV
Субдискретизация насыщенности            : 4:2:0
Битовая глубина                          : 8 бит
Тип развёртки                            : Прогрессивная
Метод сжатия                             : С потерями
Бит/(Пиксели*Кадры)                      : 0.262
Размер потока                            : 631 Мбайт (90%)
Библиотека кодирования                   : XviD 1.2.1 (UTC 2008-12-04)
Аудио
Идентификатор                            : 1
Формат                                   : AC-3
Формат/Информация                        : Audio Coding 3
Расширение режима                        : CM (complete main)
Параметр Endianness формата              : Big
Идентификатор кодека                     : 2000
Продолжительность                        : 46 м.
Вид битрейта                             : Постоянный
Битрейт                                  : 192 Кбит/сек
Каналы                                   : 2 канала
Расположение каналов                     : Front: L R
Частота                                  : 48,0 КГц
Метод сжатия                             : С потерями
Размер потока                            : 64,3 Мбайт (9%)
Выравнивание                             : Разделение по промежуткам
Продолжительность промежутка             : 40  мс. (1,00 видеокадр)
Время предзагрузки промежутка            : 500  мс.

Скриншоты:



Смотреть онлайн


[trackeroc.ru].8479.torrent 
Торрент: Зарегистрирован   [ 2015-10-05 18:10 ]

Скачать торрент

33 KB

Статус: проверено
Скачан: 15 раз
Размер: 6.15 GB
 

Admin (05-окт-15)
Похожие торренты
Форум Тема Автор Размер
Зарубежные сериалы Последний человек на Земле / The Last Man on Earth (2017) (сезон 4, серии 1-2 из 18) Admin 501 MB
Зарубежные сериалы Сверхлюди / Inhumans [сезон 1 серии 1-4 из 8] (2017) Admin 2.01 GB
Зарубежные сериалы Одаренные / The Gifted (2017) (сезон 1, серии 1-2 из 10) Admin 1.08 GB
Зарубежные сериалы Флэш / The Flash (2017) (сезон 4, серии 1-1 из 23) Admin 519 MB
Зарубежные сериалы Супердевушка / Supergirl (2017) WEB-DLRip (сезон 3, серии 1-1 из 22) Admin 925 MB

_________________

[Профиль] [ЛС]
Показать сообщения:    
Ответить на тему

Текущее время: Сегодня 11:42

Часовой пояс: GMT + 4



Вы не можете начинать темы
Вы не можете отвечать на сообщения
Вы не можете редактировать свои сообщения
Вы не можете удалять свои сообщения
Вы не можете голосовать в опросах
Вы не можете прикреплять файлы к сообщениям
Вы можете скачивать файлы