Тайна последней главы (2019) WEB-DLRip (сезон 1, серии 1-4 из 4) скачать торрент

Reply to topic

DL-List and Torrent activity [Update пиров]
Size:  2.23 GB   |    Registered:  2 months 6 days   |    Completed:  0 times
Seeders:  7  [  582 KB/s  ]   Leechers:  1  [  589 KB/s  ]   Show peers in full details
 
 
 
 
Author Message

BiOS ®

Longevity: 5 years 6 months

Posts: 2339

Location: Earth


Post 09-Sep-2019 01:59

[Quote]

Тайна последней главы - Производство: Россия / MAGIC FACTORY
Жанр: детектив, триллер
Режиссер: Артур Румынский
Актеры: Александра Никифорова, Константин Соловьёв, Константин Балакирев, Евгений Воловенко, Елена Морозова, Ирина Бразговка, Любовь Матюшина, Ксения Щербакова, Елена Полякова, Евгений Коряковский и др.
Описание:
В одно совершенно обыкновенное утро жизнь молодой талантливой переводчицы Ланы Берсеньевой раскололась на «до» и «после». Сначала Лана нашла мёртвой свою любимую собаку, а вскоре была убита и её старенькая няня Софико, а муж оказался главным подозреваемым.
Чтобы не сойти с ума и занять голову чем-то, кроме переживаний, Лана начинает переводить роман известного датского писателя Ханса Лундстрема, в котором, к своему ужасу, обнаруживает явные намеки на кошмары, происходящие вокруг неё. Каждая новая глава начинается с предсказания нового убийства — люди, окружающие переводчицу, гибнут один за другим. Лана понимает — убийца находится совсем рядом с ней, он контролирует её мысли и поступки, и у неё нет ни одного шанса выйти живой из игры, которую он затеял.

Дата российской премьеры: 8 сентября 2019
Релиз от: Алехаndr (NNM-Club)
Продолжительность: ~00:46:00 серия
Качество видео: WEB-DLRip
Видео: Xvid, 720x400 (16:9), ~1475 Kbps
Аудио: AC3, 2 ch, 192 Kbps

MediaInfo:

Общее
Формат : AVI
Формат/Информация : Audio Video Interleave
Размер файла : 564 Мбайт
Продолжительность : 47 м. 4 с.
Общий поток : 1676 Кбит/сек
Программа кодирования : Lavf58.20.100
Видео
Идентификатор : 0
Формат : xvid
Идентификатор кодека : xvid
Продолжительность : 47 м. 4 с.
Битрейт : 1473 Кбит/сек
Ширина : 720 пикселей
Высота : 400 пикселей
Соотношение сторон : 16:9
Частота кадров : 25,000 кадров/сек
Тип развёртки : Прогрессивная
Бит/(Пиксели*Кадры) : 0.205
Размер потока : 496 Мбайт (88%)
Аудио
Идентификатор : 1
Формат : AC-3
Формат/Информация : Audio Coding 3
Коммерческое название : Dolby Digital
Идентификатор кодека : 2000
Продолжительность : 47 м. 4 с.
Вид битрейта : Постоянный
Битрейт : 192 Кбит/сек
Каналы : 2 канала
ChannelLayout : L R
Частота : 48,0 КГц
Частота кадров : 31,250 кадров/сек (1536 SPF)
Битовая глубина : 16 бит
Метод сжатия : С потерями
Размер потока : 64,6 Мбайт (11%)
Выравнивание : Соединение по промежуткам
Продолжительность промежутка : 32 мс. (0,80 видеокадр)
ServiceKind/String : Complete Main
-Скриншоты:


Смотреть онлайн


[trackeroc.org].29071.torrent 
Torrent: Registered   [ 2019-09-09 01:59 ]

Скачать торрент

12 KB

Status: checked
Completed: 29 times
Size: 2.23 GB
 

Angel (09-сен-19), Admin (09-сен-19)
Similar torrent
Forum Topic Author Size
Российские сериалы Беловодье. Тайна затерянной страны (2016) WEB-DLRip [H.264/720p-LQ] (сезон 1, серии 1-12 из 12) BiOS 14.82 GB
Квесты, я ищу, Поиск предметов, Hidden Object Shadowplay 4. Harrowstead Mystery. / Театр теней 4. Тайна Харроустеда. [RUS / ENG] (2019) Admin 922 MB
Квесты, я ищу, Поиск предметов, Hidden Object Demon Hunter 5: Ascendance / Охотник на демонов 5: Тайна музея [RUS / ENG / Multi9] (2019) seryogakms 848 MB
Сasual games, Тайм менеджмент Alicia Quatermain 3 and Mystery of the Flaming Gold / Алисия Квотермейн 3. Тайна пылающего золота [RUS] (2018) Admin 274 MB

_________________
[Profile] [PM]
Display posts from previous:    
Reply to topic

The time now is: Today 04:24

All times are GMT + 4 Hours



You cannot post new topics in this forum
You cannot reply to topics in this forum
You cannot edit your posts in this forum
You cannot delete your posts in this forum
You cannot vote in polls in this forum
You cannot attach files in this forum
You can download files in this forum