Текст (2019) WEBRip скачать торрент

Reply to topic

DL-List and Torrent activity [Update пиров]
Size:  1.33 GB   |    Registered:  5 days   |    Completed:  0 times
Seeders:  1  [  70 KB/s  ]   Show peers in full details
 
 
 
 
Author Message

BiOS ®

Longevity: 5 years 7 months

Posts: 2373

Location: Earth


Post 30-Nov-2019 18:56

[Quote]

Текст - Производство: Россия / Фонд развития современного кинематографа «КИНОПРАЙМ», Централ Партнершип, START Studio
Жанр: Драма, триллер
Режиссер: Клим Шипенко
Актеры: Александр Петров, Кристина Асмус, Иван Янковский, Софья Озерова, Максим Виноградов, Виталий Хаев, Дмитрий Глуховский, Кирилл Нагиев, Елена Финогеева
Описание:
Главный герой — 27-летний Илья Горюнов, семь лет отсидевший в тюрьме по ложному обвинению в распространении наркотиков. Когда Илья выходит на свободу, он понимает, что прежняя жизнь, по которой он тосковал, разрушена, и вернуться к ней он больше не сможет. Хотя он не собирался мстить человеку, который отправил его в тюрьму, другого выхода теперь нет. Встретившись лицом к лицу со своим обидчиком, Илья совершает необдуманный поступок, после которого главный герой получает доступ к смартфону Петра, а с ним и к жизни молодого человека — его фотографиям и видео, перепискам с родителями и девушкой Ниной, к странным, полным недомолвок и угроз переговорам с коллегами. На время Илья становится для всех Петром — через текст на экране телефона.

Возраст: 18+ (зрителям, достигшим 18 лет. запрещено для детей)
Дата мировой премьеры: 24 октября 2019
Дата российской премьеры: 24 октября 2019
Продолжительность: 02:11:30
Качество видео: WEBRip
Перевод: Не требуется (русский)
Субтитры: Отсутствуют
Видео: Xvid, 720x264, ~1240 Kbps
Аудио: AC3, 2 ch, 192 Kbps

MediaInfo:

Общее
Полное имя : Tekst.2019.avi
Формат : AVI
Формат/Информация : Audio Video Interleave
Профиль формата : OpenDML
Размер файла : 1,33 Гбайт
Продолжительность : 2 ч. 11 м.
Общий поток : 1446 Кбит/сек
Программа кодирования : Lavf58.20.100
Видео
Идентификатор : 0
Формат : MPEG-4 Visual
Профиль формата : Advanced Simple@L5
Настройки формата : BVOP2
Параметр BVOP формата : 2
Параметр QPel формата : Нет
Параметр GMC формата : Без точки перехода
Параметр матрицы формата : Default (MPEG)
Идентификатор кодека : XVID
Идентификатор кодека/Подсказка : XviD
Продолжительность : 2 ч. 11 м.
Битрейт : 1241 Кбит/сек
Ширина : 720 пикселей
Высота : 264 пикселя
Соотношение сторон : 2,727
Частота кадров : 25,000 кадров/сек
Цветовое пространство : YUV
Субдискретизация насыщенности : 4:2:0
Битовая глубина : 8 бит
Тип развёртки : Прогрессивная
Метод сжатия : С потерями
Бит/(Пиксели*Кадры) : 0.261
Размер потока : 1,14 Гбайт (86%)
Библиотека кодирования : XviD 67
Аудио
Идентификатор : 1
Формат : AC-3
Формат/Информация : Audio Coding 3
Коммерческое название : Dolby Digital
Идентификатор кодека : 2000
Продолжительность : 2 ч. 11 м.
Вид битрейта : Постоянный
Битрейт : 192 Кбит/сек
Каналы : 2 канала
ChannelLayout : L R
Частота : 48,0 КГц
Частота кадров : 31,250 кадров/сек (1536 SPF)
Битовая глубина : 16 бит
Метод сжатия : С потерями
Размер потока : 181 Мбайт (13%)
Выравнивание : Соединение по промежуткам
Продолжительность промежутка : 32 мс. (0,80 видеокадр)
ServiceKind/String : Complete Main
-Скриншоты:


Смотреть онлайн


[trackeroc.org].29592.torrent 
Torrent: Registered   [ 2019-12-01 23:24 ]

Скачать торрент

14 KB

Status: checked
Completed: 10 times
Size: 1.33 GB
 

Admin (30-ноя-19)
Similar torrent
Forum Topic Author Size
Strategy, Стратегии Xenonauts 2 (2019) (ENG) [beta 1.0] Repack DD Admin 3.13 GB
Strategy, Стратегии Surviving the Aftermath [RUS + ENG + 6] (2019) (1.2.0.5239) [В разработке] Repack DD Admin 2.21 GB
Visual Novel, Визуальные новеллы Treasure of Nadia v09121 (2019) (ENG+RUS) Admin 762 MB
Strategy, Стратегии Tropico 6 - The Llama of Wall Street (2019) [Ru/En] (v7.0/dlc) Admin 9.22 GB
Arcade, Аркады, Платформеры Retimed Supporter Edition (2019) (ENG+RUS) Admin 4.39 GB

_________________
[Profile] [PM]
Display posts from previous:    
Reply to topic

The time now is: Today 02:32

All times are GMT + 4 Hours



You cannot post new topics in this forum
You cannot reply to topics in this forum
You cannot edit your posts in this forum
You cannot delete your posts in this forum
You cannot vote in polls in this forum
You cannot attach files in this forum
You can download files in this forum