Терминатор: Генезис / Terminator: Genisys (Алан Тейлор / Alan Taylor) [2015, фантастика, боевик, триллер, HDRip]

Ответить на тему

Статистика раздачи [Обновить пиров]
Размер:  1.45 GB   |    Зарегистрирован:  1 год 7 месяцев   |    Скачан:  8 раз
Сидов:  1  [  0 KB/s  ]   Личеров:  3  [  0 KB/s  ]   Подробная статистика пиров
 
   
 
 
Автор Сообщение

Матвей ®

Стаж: 1 год 7 месяцев

Сообщений: 227

Откуда: Челябинск


Пост 15-Окт-2015 18:06

[Цитировать]

Терминатор: Генезис / Terminator: Genisys «Судьба переписана»--- Производство: США / Paramount Pictures, Skydance Productions
Жанр: фантастика, боевик, триллер
Режиссер: Алан Тейлор
Продюсер: Дэвид Эллисон, Дэна Голдберг, Билл Карраро
Актеры: Арнольд Шварценеггер, Джейсон Кларк, Эмилия Кларк, Джай Кортни, Дж.К. Симмонс, Дайо Окенийи, Мэтт Смит, Кортни Б. Вэнс, Ли Бён Хон, Майкл Глэдис
Описание:
Когда Джон Коннор, лидер сопротивления, посылает сержанта Кайла Риза назад в 1984 год, чтобы защитить Сару Коннор и спасти будущее, неожиданный поворот событий создает разлом во времени. Сержант Риз оказывается в новой, незнакомой версии прошлого, где он встречает неожиданных союзников, в том числе Терминатора, новых опасных врагов, и новую миссию: изменить будущее…

КиноПоиск
IMDB
SAMPLE
Рейтинг MPAA: - детям до 13 лет просмотр не желателен
Дата мировой премьеры: 21 июня 2015
Дата российской премьеры: 2 июля 2015, «Централ Партнершип» 3D
Дата выхода Blu-Ray/DVD релиза: 22 ноября 2015, «Новый Диск»
Продолжительность: 02:05:42
Качество: HDRip
Перевод: Дублированный (iTunes)
Субтитры: Отсутствуют
Видео: XviD, 1 263 Kbps, 720x304
Звук: AC3, 6 ch, 384 Кбит/с - Русский

MediaInfo:

Код:
General
Complete name                            : Terminator Genisys HDRip.2015.1 46.D.avi
Format                                   : AVI
Format/Info                              : Audio Video Interleave
File size                                : 1.45 GiB
Duration                                 : 2h 5mn
Overall bit rate                         : 1 656 Kbps
Writing application                      : VirtualDubMod 1.5.10.2 (build 2540/release)
Writing library                          : VirtualDubMod build 2540/release
Video
ID                                       : 0
Format                                   : MPEG-4 Visual
Format profile                           : Advanced Simple@L5
Format settings, BVOP                    : 2
Format settings, QPel                    : No
Format settings, GMC                     : No warppoints
Format settings, Matrix                  : Default (MPEG)
Codec ID                                 : XVID
Codec ID/Hint                            : XviD
Duration                                 : 2h 5mn
Bit rate                                 : 1 263 Kbps
Width                                    : 720 pixels
Height                                   : 304 pixels
Display aspect ratio                     : 2.35:1
Frame rate                               : 23.976 fps
Color space                              : YUV
Chroma subsampling                       : 4:2:0
Bit depth                                : 8 bits
Scan type                                : Progressive
Compression mode                         : Lossy
Bits/(Pixel*Frame)                       : 0.241
Stream size                              : 1.11 GiB (76%)
Writing library                          : XviD 1.2.1 (UTC 2008-12-04)
Audio
ID                                       : 1
Format                                   : AC-3
Format/Info                              : Audio Coding 3
Mode extension                           : CM (complete main)
Format settings, Endianness              : Big
Codec ID                                 : 2000
Duration                                 : 2h 5mn
Bit rate mode                            : Constant
Bit rate                                 : 384 Kbps
Channel count                            : 6 channels
Channel positions                        : Front: L C R, Side: L R, LFE
Sampling rate                            : 48.0 KHz
Bit depth                                : 16 bits
Compression mode                         : Lossy
Stream size                              : 345 MiB (23%)
Alignment                                : Split accross interleaves
Interleave, duration                     : 42 ms (1.00 video frame)
Interleave, preload duration             : 500 ms

Скриншоты:



Смотреть онлайн


[trackeroc.ru].8818.torrent 
Торрент: Зарегистрирован   [ 2015-10-15 18:06 ]

Скачать торрент

3 KB

Статус: проверено
Скачан: 20 раз
Размер: 1.45 GB
 

Admin (15-окт-15)
Похожие торренты
Форум Тема Автор Размер
Боевики Терминатор: Генезис / Terminator: Genisys (2015) HDRip Admin 1.37 GB

_________________

[Профиль] [ЛС]
Показать сообщения:    
Ответить на тему

Текущее время: Сегодня 22:22

Часовой пояс: GMT + 4



Вы не можете начинать темы
Вы не можете отвечать на сообщения
Вы не можете редактировать свои сообщения
Вы не можете удалять свои сообщения
Вы не можете голосовать в опросах
Вы не можете прикреплять файлы к сообщениям
Вы можете скачивать файлы