The Dirty Youth - Gold Dust (2015) [MP3|320 кб/с]<Alternative Rock, Female Vocal>

Ответить на тему

Статистика раздачи [Обновить пиров]
Размер:  93 MB   |    Зарегистрирован:  1 год 1 месяц   |    Скачан:  3 раза

Полного источника не было: 2 месяца 20 дней

 
 
 
 
Автор Сообщение

Матвей ®

Стаж: 1 год 2 месяца

Сообщений: 236

Откуда: Челябинск


Пост 12-Окт-2015 21:34

[Цитировать]

The Dirty Youth - Gold Dust -- Год: 2015
Жанр: Alternative Rock, Female Vocal
Продолжительность: 00:40:14
Кодек: MP3
Битрейт: 320 кб/с
Тип битрейта: CBR
Треклист:
1. I'm Not Listening To You
2. Alive
3. Just Move On
4. The One
5. Darkest Wedding
6. Invincible
7. Bury Me Next To Elvis
8. Don't Feel Right
9. Who I Am
10. Bedroom Karate
11. Holding On

MI&#58;

Код:
Общее
Полное имя                               : C:\Торрент\The Dirty Youth - Gold Dust (2015)\01. I'm Not Listening to You.mp3
Формат                                   : MPEG Audio
Размер файла                             : 8,13 Мбайт
Продолжительность                        : 3 м. 30 с.
Режим общего битрейта                    : Постоянный
Общий поток                              : 320 Кбит/сек
Альбом                                   : Gold Dust
Трек                                     : I'm Not Listening to You
Трек/Положение                           : 1
Трек/Всего                               : 11
Исполнитель                              : The Dirty Youth
Жанр                                     : Alt. Rock
Дата записи                              : 2015
Библиотека кодирования                   : LAME3.99r
Обложка                                  : Yes
Тип обложки                              : Cover (front)
MIME-тип обложки                         : image/jpeg
Аудио
Формат                                   : MPEG Audio
Версия формата                           : Version 1
Профиль формата                          : Layer 3
Режим                                    : Joint stereo
Расширение режима                        : MS Stereo
Продолжительность                        : 3 м. 30 с.
Вид битрейта                             : Постоянный
Битрейт                                  : 320 Кбит/сек
Каналы                                   : 2 канала
Частота                                  : 44,1 КГц
Метод сжатия                             : С потерями
Размер потока                            : 8,04 Мбайт (99%)
Библиотека кодирования                   : LAME3.99r
Настройки программы                      : -m j -V 4 -q 3 -lowpass 20.5
Общее
Полное имя                               : C:\Торрент\The Dirty Youth - Gold Dust (2015)\02. Alive.mp3
Формат                                   : MPEG Audio
Размер файла                             : 9,38 Мбайт
Продолжительность                        : 4 м. 3 с.
Режим общего битрейта                    : Постоянный
Общий поток                              : 320 Кбит/сек
Альбом                                   : Gold Dust
Трек                                     : Alive
Трек/Положение                           : 2
Трек/Всего                               : 11
Исполнитель                              : The Dirty Youth
Жанр                                     : Alt. Rock
Дата записи                              : 2015
Библиотека кодирования                   : LAME3.99r
Обложка                                  : Yes
Тип обложки                              : Cover (front)
MIME-тип обложки                         : image/jpeg
Аудио
Формат                                   : MPEG Audio
Версия формата                           : Version 1
Профиль формата                          : Layer 3
Режим                                    : Joint stereo
Продолжительность                        : 4 м. 3 с.
Вид битрейта                             : Постоянный
Битрейт                                  : 320 Кбит/сек
Каналы                                   : 2 канала
Частота                                  : 44,1 КГц
Метод сжатия                             : С потерями
Размер потока                            : 9,28 Мбайт (99%)
Библиотека кодирования                   : LAME3.99r
Настройки программы                      : -m j -V 4 -q 3 -lowpass 20.5
Общее
Полное имя                               : C:\Торрент\The Dirty Youth - Gold Dust (2015)\03. Just Move On.mp3
Формат                                   : MPEG Audio
Размер файла                             : 8,98 Мбайт
Продолжительность                        : 3 м. 52 с.
Режим общего битрейта                    : Постоянный
Общий поток                              : 320 Кбит/сек
Альбом                                   : Gold Dust
Трек                                     : Just Move On
Трек/Положение                           : 3
Трек/Всего                               : 11
Исполнитель                              : The Dirty Youth
Жанр                                     : Alt. Rock
Дата записи                              : 2015
Библиотека кодирования                   : LAME3.99r
Обложка                                  : Yes
Тип обложки                              : Cover (front)
MIME-тип обложки                         : image/jpeg
Аудио
Формат                                   : MPEG Audio
Версия формата                           : Version 1
Профиль формата                          : Layer 3
Режим                                    : Joint stereo
Расширение режима                        : MS Stereo
Продолжительность                        : 3 м. 52 с.
Вид битрейта                             : Постоянный
Битрейт                                  : 320 Кбит/сек
Каналы                                   : 2 канала
Частота                                  : 44,1 КГц
Метод сжатия                             : С потерями
Размер потока                            : 8,88 Мбайт (99%)
Библиотека кодирования                   : LAME3.99r
Настройки программы                      : -m j -V 4 -q 3 -lowpass 20.5
Общее
Полное имя                               : C:\Торрент\The Dirty Youth - Gold Dust (2015)\04. The One.mp3
Формат                                   : MPEG Audio
Размер файла                             : 6,93 Мбайт
Продолжительность                        : 2 м. 59 с.
Режим общего битрейта                    : Постоянный
Общий поток                              : 320 Кбит/сек
Альбом                                   : Gold Dust
Трек                                     : The One
Трек/Положение                           : 4
Трек/Всего                               : 11
Исполнитель                              : The Dirty Youth
Жанр                                     : Alt. Rock
Дата записи                              : 2015
Библиотека кодирования                   : LAME3.99r
Обложка                                  : Yes
Тип обложки                              : Cover (front)
MIME-тип обложки                         : image/jpeg
Аудио
Формат                                   : MPEG Audio
Версия формата                           : Version 1
Профиль формата                          : Layer 3
Режим                                    : Joint stereo
Расширение режима                        : MS Stereo
Продолжительность                        : 2 м. 59 с.
Вид битрейта                             : Постоянный
Битрейт                                  : 320 Кбит/сек
Каналы                                   : 2 канала
Частота                                  : 44,1 КГц
Метод сжатия                             : С потерями
Размер потока                            : 6,84 Мбайт (99%)
Библиотека кодирования                   : LAME3.99r
Настройки программы                      : -m j -V 4 -q 3 -lowpass 20.5
Общее
Полное имя                               : C:\Торрент\The Dirty Youth - Gold Dust (2015)\05. Darkest Wedding.mp3
Формат                                   : MPEG Audio
Размер файла                             : 8,89 Мбайт
Продолжительность                        : 3 м. 50 с.
Режим общего битрейта                    : Постоянный
Общий поток                              : 320 Кбит/сек
Альбом                                   : Gold Dust
Трек                                     : Darkest Wedding
Трек/Положение                           : 5
Трек/Всего                               : 11
Исполнитель                              : The Dirty Youth
Жанр                                     : Alt. Rock
Дата записи                              : 2015
Библиотека кодирования                   : LAME3.99r
Обложка                                  : Yes
Тип обложки                              : Cover (front)
MIME-тип обложки                         : image/jpeg
Аудио
Формат                                   : MPEG Audio
Версия формата                           : Version 1
Профиль формата                          : Layer 3
Режим                                    : Joint stereo
Расширение режима                        : MS Stereo
Продолжительность                        : 3 м. 50 с.
Вид битрейта                             : Постоянный
Битрейт                                  : 320 Кбит/сек
Каналы                                   : 2 канала
Частота                                  : 44,1 КГц
Метод сжатия                             : С потерями
Размер потока                            : 8,80 Мбайт (99%)
Библиотека кодирования                   : LAME3.99r
Настройки программы                      : -m j -V 4 -q 3 -lowpass 20.5
Общее
Полное имя                               : C:\Торрент\The Dirty Youth - Gold Dust (2015)\06. Invincible.mp3
Формат                                   : MPEG Audio
Размер файла                             : 7,76 Мбайт
Продолжительность                        : 3 м. 21 с.
Режим общего битрейта                    : Постоянный
Общий поток                              : 320 Кбит/сек
Альбом                                   : Gold Dust
Трек                                     : Invincible
Трек/Положение                           : 6
Трек/Всего                               : 11
Исполнитель                              : The Dirty Youth
Жанр                                     : Alt. Rock
Дата записи                              : 2015
Библиотека кодирования                   : LAME3.99r
Обложка                                  : Yes
Тип обложки                              : Cover (front)
MIME-тип обложки                         : image/jpeg
Аудио
Формат                                   : MPEG Audio
Версия формата                           : Version 1
Профиль формата                          : Layer 3
Режим                                    : Joint stereo
Продолжительность                        : 3 м. 21 с.
Вид битрейта                             : Постоянный
Битрейт                                  : 320 Кбит/сек
Каналы                                   : 2 канала
Частота                                  : 44,1 КГц
Метод сжатия                             : С потерями
Размер потока                            : 7,67 Мбайт (99%)
Библиотека кодирования                   : LAME3.99r
Настройки программы                      : -m j -V 4 -q 3 -lowpass 20.5
Общее
Полное имя                               : C:\Торрент\The Dirty Youth - Gold Dust (2015)\07. Bury Me Next to Elvis.mp3
Формат                                   : MPEG Audio
Размер файла                             : 8,03 Мбайт
Продолжительность                        : 3 м. 28 с.
Режим общего битрейта                    : Постоянный
Общий поток                              : 320 Кбит/сек
Альбом                                   : Gold Dust
Трек                                     : Bury Me Next to Elvis
Трек/Положение                           : 7
Трек/Всего                               : 11
Исполнитель                              : The Dirty Youth
Жанр                                     : Alt. Rock
Дата записи                              : 2015
Библиотека кодирования                   : LAME3.99r
Обложка                                  : Yes
Тип обложки                              : Cover (front)
MIME-тип обложки                         : image/jpeg
Аудио
Формат                                   : MPEG Audio
Версия формата                           : Version 1
Профиль формата                          : Layer 3
Режим                                    : Joint stereo
Продолжительность                        : 3 м. 28 с.
Вид битрейта                             : Постоянный
Битрейт                                  : 320 Кбит/сек
Каналы                                   : 2 канала
Частота                                  : 44,1 КГц
Метод сжатия                             : С потерями
Размер потока                            : 7,94 Мбайт (99%)
Библиотека кодирования                   : LAME3.99r
Настройки программы                      : -m j -V 4 -q 3 -lowpass 20.5
Общее
Полное имя                               : C:\Торрент\The Dirty Youth - Gold Dust (2015)\08. Don't Feel Right.mp3
Формат                                   : MPEG Audio
Размер файла                             : 7,72 Мбайт
Продолжительность                        : 3 м. 19 с.
Режим общего битрейта                    : Постоянный
Общий поток                              : 320 Кбит/сек
Альбом                                   : Gold Dust
Трек                                     : Don't Feel Right
Трек/Положение                           : 8
Трек/Всего                               : 11
Исполнитель                              : The Dirty Youth
Жанр                                     : Alt. Rock
Дата записи                              : 2015
Библиотека кодирования                   : LAME3.99r
Обложка                                  : Yes
Тип обложки                              : Cover (front)
MIME-тип обложки                         : image/jpeg
Аудио
Формат                                   : MPEG Audio
Версия формата                           : Version 1
Профиль формата                          : Layer 3
Режим                                    : Joint stereo
Продолжительность                        : 3 м. 19 с.
Вид битрейта                             : Постоянный
Битрейт                                  : 320 Кбит/сек
Каналы                                   : 2 канала
Частота                                  : 44,1 КГц
Метод сжатия                             : С потерями
Размер потока                            : 7,62 Мбайт (99%)
Библиотека кодирования                   : LAME3.99r
Настройки программы                      : -m j -V 4 -q 3 -lowpass 20.5
Общее
Полное имя                               : C:\Торрент\The Dirty Youth - Gold Dust (2015)\09. Who I Am.mp3
Формат                                   : MPEG Audio
Размер файла                             : 9,99 Мбайт
Продолжительность                        : 4 м. 19 с.
Режим общего битрейта                    : Постоянный
Общий поток                              : 320 Кбит/сек
Альбом                                   : Gold Dust
Трек                                     : Who I Am
Трек/Положение                           : 9
Трек/Всего                               : 11
Исполнитель                              : The Dirty Youth
Жанр                                     : Alt. Rock
Дата записи                              : 2015
Библиотека кодирования                   : LAME3.99r
Обложка                                  : Yes
Тип обложки                              : Cover (front)
MIME-тип обложки                         : image/jpeg
Аудио
Формат                                   : MPEG Audio
Версия формата                           : Version 1
Профиль формата                          : Layer 3
Режим                                    : Joint stereo
Продолжительность                        : 4 м. 19 с.
Вид битрейта                             : Постоянный
Битрейт                                  : 320 Кбит/сек
Каналы                                   : 2 канала
Частота                                  : 44,1 КГц
Метод сжатия                             : С потерями
Размер потока                            : 9,89 Мбайт (99%)
Библиотека кодирования                   : LAME3.99r
Настройки программы                      : -m j -V 4 -q 3 -lowpass 20.5
Общее
Полное имя                               : C:\Торрент\The Dirty Youth - Gold Dust (2015)\10. Bedroom Karate.mp3
Формат                                   : MPEG Audio
Размер файла                             : 7,48 Мбайт
Продолжительность                        : 3 м. 13 с.
Режим общего битрейта                    : Постоянный
Общий поток                              : 320 Кбит/сек
Альбом                                   : Gold Dust
Трек                                     : Bedroom Karate
Трек/Положение                           : 10
Трек/Всего                               : 11
Исполнитель                              : The Dirty Youth
Жанр                                     : Alt. Rock
Дата записи                              : 2015
Библиотека кодирования                   : LAME3.99r
Обложка                                  : Yes
Тип обложки                              : Cover (front)
MIME-тип обложки                         : image/jpeg
Аудио
Формат                                   : MPEG Audio
Версия формата                           : Version 1
Профиль формата                          : Layer 3
Режим                                    : Joint stereo
Продолжительность                        : 3 м. 13 с.
Вид битрейта                             : Постоянный
Битрейт                                  : 320 Кбит/сек
Каналы                                   : 2 канала
Частота                                  : 44,1 КГц
Метод сжатия                             : С потерями
Размер потока                            : 7,38 Мбайт (99%)
Библиотека кодирования                   : LAME3.99r
Настройки программы                      : -m j -V 4 -q 3 -lowpass 20.5
Общее
Полное имя                               : C:\Торрент\The Dirty Youth - Gold Dust (2015)\11. Holding On.mp3
Формат                                   : MPEG Audio
Размер файла                             : 9,79 Мбайт
Продолжительность                        : 4 м. 14 с.
Режим общего битрейта                    : Постоянный
Общий поток                              : 320 Кбит/сек
Альбом                                   : Gold Dust
Трек                                     : Holding On
Трек/Положение                           : 11
Трек/Всего                               : 11
Исполнитель                              : The Dirty Youth
Жанр                                     : Alt. Rock
Дата записи                              : 2015
Библиотека кодирования                   : LAME3.99r
Обложка                                  : Yes
Тип обложки                              : Cover (front)
MIME-тип обложки                         : image/jpeg
Аудио
Формат                                   : MPEG Audio
Версия формата                           : Version 1
Профиль формата                          : Layer 3
Режим                                    : Joint stereo
Продолжительность                        : 4 м. 14 с.
Вид битрейта                             : Постоянный
Битрейт                                  : 320 Кбит/сек
Каналы                                   : 2 канала
Частота                                  : 44,1 КГц
Метод сжатия                             : С потерями
Размер потока                            : 9,69 Мбайт (99%)
Библиотека кодирования                   : LAME3.99r
Настройки программы                      : -m j -V 4 -q 3 -lowpass 20.5
Общее
Полное имя                               : C:\Торрент\The Dirty Youth - Gold Dust (2015)\folder.jpg
Формат                                   : JPEG
Размер файла                             : 94,4 Кбайт
Изображения
Формат                                   : JPEG
Ширина                                   : 600 пикселей
Высота                                   : 600 пикселей
Цветовое пространство                    : YUV
Субдискретизация насыщенности            : 4:4:4
Битовая глубина                          : 8 бит
Метод сжатия                             : С потерями
Размер потока                            : 94,4 Кбайт (100%)


[trackeroc.ru].8645.torrent 
Торрент: Зарегистрирован   [ 2015-10-12 21:34 ]

Скачать торрент

16 KB

Статус: проверено
Скачан: 32 раз
Размер: 93 MB
 

Admin (12-окт-15)
Похожие торренты
Форум Тема Автор Размер
Квесты , я ищу , Поиск предметов Hidden Object Hidden Expedition 10: The Fountain of Youth CE/Секретная экспедиция 10. Фонтан молодости (2016) (Big Fish Games) (RUS) [P] HOPE 818 MB
Комедии Дедушка легкого поведения / Dirty Grandpa [2016, США, комедия, WEB-DLRip] Admin 1.47 GB
Боевики Грязная ложь / Dirty Lies [2016, США, Боевик, триллер, драма, криминал, DVDRip] Admin 1.37 GB
Квесты , я ищу , Поиск предметов Hidden Object Hidden Expedition 10: The Fountain of Youth Collector's Edition (2016) (Big Fish Games) (ENG) [P] HOPE 745 MB

_________________

[Профиль] [ЛС]
Показать сообщения:    
Ответить на тему

Текущее время: Сегодня 18:37

Часовой пояс: GMT + 4



Вы не можете начинать темы
Вы не можете отвечать на сообщения
Вы не можете редактировать свои сообщения
Вы не можете удалять свои сообщения
Вы не можете голосовать в опросах
Вы не можете прикреплять файлы к сообщениям
Вы можете скачивать файлы