The Order 1886 (2015) WEBRip [H.264/720p-LQ] (Gameplay) скачать торрент

Ответить на тему

Статистика раздачи [Обновить пиров]
Размер:  1.83 GB   |    Зарегистрирован:  1 год 8 месяцев   |    Скачан:  1 раз

Полного источника не было: 6 месяцев 14 дней

 
   
 
 
 
Автор Сообщение

BiOS ®

Стаж: 3 года 3 месяца

Сообщений: 1993

Откуда: Raccoon City


Пост 13-Ноя-2015 01:37

[Цитировать]

The Order 1886 - Жанр: Игровой фильм, Приключение
Описание:
The Order: 1886 приглашает вас в увлекательное путешествие по Лондону викторианской эпохи, эпохи продвинутых технологий, используемых против могущественного и древнего врага. Вступайте в элитный рыцарский орден и принимайте участие в многовековой вражде, которая навсегда определит ход истории.
Продолжительность: 03:12:07
Качество видео: HDRip
Перевод: Дублированный
Язык субтитров: Русский
Вид субтитров: Вшитые
Видео: AVC/H.264, 1280х720, ~1170 Кбит/сек
Аудио: AAC, 2 ch, 192 Кбит/сек, VBR

Mediainfo:

Код:
Общее
Полное имя                               : C:\Users\Антон\Downloads\Фильм The Order 1886 (весь сюжет, русская версия) [1080p].mp4
Формат                                   : MPEG-4
Профиль формата                          : Base Media / Version 2
Идентификатор кодека                     : mp42
Размер файла                             : 1,83 Гбайт
Продолжительность                        : 3 ч. 12 м.
Режим общего битрейта                    : Переменный
Общий поток                              : 1365 Кбит/сек
Дата кодирования                         : UTC 2015-03-16 00:51:13
Дата пометки                             : UTC 2015-03-16 00:51:13
gsst                                     : 0
gstd                                     : 11527986
gssd                                     : BADC2926BHM1437256933423088
gshh                                     : r11---sn-n8v7znee.googlevideo.com
Видео
Идентификатор                            : 1
Формат                                   : AVC
Формат/Информация                        : Advanced Video Codec
Профиль формата                          : High@L3.1
Параметр CABAC формата                   : Да
Параметр ReFrames формата                : 1 кадр
Параметр GOP формата                     : M=1, N=60
Идентификатор кодека                     : avc1
Идентификатор кодека/Информация          : Advanced Video Coding
Продолжительность                        : 3 ч. 12 м.
Битрейт                                  : 1170 Кбит/сек
Максимальный битрейт                     : 4354 Кбит/сек
Ширина                                   : 1280 пикселей
Высота                                   : 720 пикселей
Соотношение сторон                       : 16:9
Режим частоты кадров                     : Постоянный
Частота кадров                           : 30,000 кадров/сек
Цветовое пространство                    : YUV
Субдискретизация насыщенности            : 4:2:0
Битовая глубина                          : 8 бит
Тип развёртки                            : Прогрессивная
Бит/(Пиксели*Кадры)                      : 0.042
Размер потока                            : 1,57 Гбайт (86%)
Дата кодирования                         : UTC 1970-01-01 00:00:00
Дата пометки                             : UTC 2015-03-16 00:56:03
Аудио
Идентификатор                            : 2
Формат                                   : AAC
Формат/Информация                        : Advanced Audio Codec
Профиль формата                          : LC
Идентификатор кодека                     : 40
Продолжительность                        : 3 ч. 12 м.
Вид битрейта                             : Переменный
Битрейт                                  : 192 Кбит/сек
Максимальный битрейт                     : 202 Кбит/сек
Каналы                                   : 2 канала
Расположение каналов                     : Front: L R
Частота                                  : 44,1 КГц
Метод сжатия                             : С потерями
Размер потока                            : 264 Мбайт (14%)
Заголовок                                : IsoMedia File Produced by Google, 5-11-2011
Язык                                     : English
Дата кодирования                         : UTC 2015-03-16 00:53:52
Дата пометки                             : UTC 2015-03-16 00:56:03
-Скриншоты:


[trackeroc.ru].9701.torrent 
 СЕРЕБРЯНАЯ РАЗДАЧА! СКАЧАННОЕ ЗАСЧИТЫВАЕТСЯ ТОЛЬКО НАПОЛОВИНУ! 
Торрент: Зарегистрирован   [ 2015-11-13 01:37 ]

Скачать торрент

19 KB

Статус: проверено
Скачан: 56 раз
Размер: 1.83 GB
 

Похожие торренты
Форум Тема Автор Размер
Квесты, я ищу, Поиск предметов, Hidden Object The Secret Order 6. Bloodline Collectors Edition [P] [ENG / ENG] (2017) HOPE 1.31 GB
Квесты, я ищу, Поиск предметов, Hidden Object The Secret Order 5: The Buried Kingdom Collectors Edition/Тайный Орден 5: Затерянное Королевство (2016) (Artifex Mundi) (RUS) [P] HOPE 1.35 GB
Квесты, я ищу, Поиск предметов, Hidden Object The Secret Order 2: Masked Intent [CE] / Тайный орден 2: Под маской [КИ] [P] [MULTI / ENG] (2013) HOPE 779 MB
Квесты, я ищу, Поиск предметов, Hidden Object The Secret Order 4: Beyond Time [CE] / Тайный орден 4: Вне времени [КИ] [P] [MULTI / ENG] (2015) HOPE 850 MB
Квесты, я ищу, Поиск предметов, Hidden Object The Secret Order 3: Ancient Times [CE] / Тайный орден 3: Древние времена [КИ] [P] [MULTI / ENG] (2014) HOPE 735 MB

_________________
[Профиль] [ЛС]
Показать сообщения:    
Ответить на тему

Текущее время: Сегодня 22:45

Часовой пояс: GMT + 4



Вы не можете начинать темы
Вы не можете отвечать на сообщения
Вы не можете редактировать свои сообщения
Вы не можете удалять свои сообщения
Вы не можете голосовать в опросах
Вы не можете прикреплять файлы к сообщениям
Вы можете скачивать файлы