Титаник / Titanic (1997) BDRip [H.264/1080p-LQ] скачать торрент

Ответить на тему

Статистика раздачи [Обновить пиров]
Размер:  5.7 GB   |    Зарегистрирован:  1 месяц 6 дней   |    Скачан:  0 раз

Полного источника не было: 1 месяц 4 дня

 
   
 
 
 
Автор Сообщение

BiOS ®

Стаж: 3 года 7 месяцев

Сообщений: 2024

Откуда: Raccoon City


Пост 11-Ноя-2017 05:51

[Цитировать]

Титаник / Titanic
«Ничто на Земле не сможет разлучить их»
- Производство: США / Twentieth Century Fox Film Corporation
Жанр: Драма, Мелодрама
Режиссер: Джеймс Кэмерон
Актеры: Леонардо ДиКаприо, Билл Пэкстон, Бернард Хилл, Фрэнсис Фишер, Кейт Уинслет, Билли Зейн, Кэти Бэйтс, Джонатан Хайд, Дэвид Уорнер, Йоан Граффадд, Виктор Гарбер, Сьюзи Эмис, Марк Линдсэй Чэпмэн, Дэнни Нуччи, Глория Стюарт, Брендан Коннолли, Джеймс Кэмерон
Описание:
Молодые влюбленные Джек и Роза находят друг друга в первом и последнем плавании «непотопляемого» Титаника. Они не могли знать, что шикарный лайнер столкнется с айсбергом в холодных водах Северной Атлантики, и их страстная любовь превратится в схватку со смертью…
Возраст 12+
Дата мировой премьеры: 1 ноября 1997
Дата премьеры в России: 20 февраля 1998
Дата выхода Blu-ray релиза: 13 сентября 2012
Продолжительность: 03:14:49
Качество видео: BDRip (1080p-LQ)
Перевод: Дублированный BD EUR
Язык субтитров: Русский, Английский
Вид субтитров: Вшитые отключаемые
Видео: MPEG-4/AVC/H.264, 1920x816 (2.35:1), ~3 703 Kbps
Аудио: AC-3, 448 kbps, 6ch, 48 kHz
Семпл: Скачать

Mediainfo:

Код:
General
Format                                   : Matroska
Format version                           : Version 2
File size                                : 5.70 GiB
Duration                                 : 3h 14mn
Overall bit rate                         : 4 189 Kbps
Encoded date                             : UTC 2015-11-11 11:38:48
Writing application                      : mkvmerge v7.8.0 ('River Man') 32bit built on Apr  3 2015 12:11:22
Writing library                          : libebml v1.3.1 + libmatroska v1.4.2
Video
ID                                       : 1
Format                                   : AVC
Format/Info                              : Advanced Video Codec
Format profile                           : High@L4.1
Format settings, CABAC                   : Yes
Format settings, ReFrames                : 5 frames
Codec ID                                 : V_MPEG4/ISO/AVC
Duration                                 : 3h 14mn
Bit rate                                 : 3 703 Kbps
Width                                    : 1 920 pixels
Height                                   : 816 pixels
Display aspect ratio                     : 2.35:1
Frame rate mode                          : Constant
Frame rate                               : 23.976 fps
Color space                              : YUV
Chroma subsampling                       : 4:2:0
Bit depth                                : 8 bits
Scan type                                : Progressive
Bits/(Pixel*Frame)                       : 0.099
Stream size                              : 4.98 GiB (87%)
Title                                    : Титаник - Titanic (1997)
Writing library                          : x264 core 146 r2538 121396c
Encoding settings                        : cabac=1 / ref=5 / deblock=1:-1:-1 / analyse=0x3:0x113 / me=umh / subme=10 / psy=1 / psy_rd=1.00:0.00 / mixed_ref=1 / me_range=40 / chroma_me=1 / trellis=2 / 8x8dct=1 / cqm=0 / deadzone=21,11 / fast_pskip=0 / chroma_qp_offset=-2 / threads=3 / lookahead_threads=1 / sliced_threads=0 / nr=0 / decimate=1 / interlaced=0 / bluray_compat=0 / constrained_intra=0 / bframes=8 / b_pyramid=2 / b_adapt=2 / b_bias=0 / direct=3 / weightb=1 / open_gop=0 / weightp=2 / keyint=250 / keyint_min=24 / scenecut=40 / intra_refresh=0 / rc_lookahead=60 / rc=2pass / mbtree=0 / bitrate=3703 / ratetol=1.0 / qcomp=0.60 / qpmin=0 / qpmax=69 / qpstep=4 / cplxblur=20.0 / qblur=0.5 / vbv_maxrate=14000 / vbv_bufsize=14000 / nal_hrd=none / filler=0 / ip_ratio=1.40 / pb_ratio=1.30 / aq=2:1.00
Language                                 : English
Default                                  : Yes
Forced                                   : No
Audio
ID                                       : 2
Format                                   : AC-3
Format/Info                              : Audio Coding 3
Mode extension                           : CM (complete main)
Format settings, Endianness              : Big
Codec ID                                 : A_AC3
Duration                                 : 3h 14mn
Bit rate mode                            : Constant
Bit rate                                 : 448 Kbps
Channel(s)                               : 6 channels
Channel positions                        : Front: L C R, Side: L R, LFE
Sampling rate                            : 48.0 KHz
Compression mode                         : Lossy
Stream size                              : 624 MiB (11%)
Language                                 : Russian
Default                                  : Yes
Forced                                   : No
Text #1
ID                                       : 3
Format                                   : PGS
Muxing mode                              : zlib
Codec ID                                 : S_HDMV/PGS
Codec ID/Info                            : Picture based subtitle format used on BDs/HD-DVDs
Language                                 : Russian
Default                                  : Yes
Forced                                   : No
Text #2
ID                                       : 4
Format                                   : PGS
Muxing mode                              : zlib
Codec ID                                 : S_HDMV/PGS
Codec ID/Info                            : Picture based subtitle format used on BDs/HD-DVDs
Language                                 : English
Default                                  : No
Forced                                   : No
-Скриншоты:


Смотреть онлайн

[trackeroc.ru].22898.torrent 
Торрент: Зарегистрирован   [ 2017-11-11 05:51 ]

Скачать торрент

29 KB

Статус: проверено
Скачан: 6 раз
Размер: 5.7 GB
 

Admin (11-ноя-17)

Похожие торренты
Форум Тема Автор Размер
Приключенческие игры, Adventure Fall of the Titanic (2015) [ENG] max+100600 465 MB

_________________
[Профиль] [ЛС]
Показать сообщения:    
Ответить на тему

Текущее время: Сегодня 10:14

Часовой пояс: GMT + 4



Вы не можете начинать темы
Вы не можете отвечать на сообщения
Вы не можете редактировать свои сообщения
Вы не можете удалять свои сообщения
Вы не можете голосовать в опросах
Вы не можете прикреплять файлы к сообщениям
Вы можете скачивать файлы