Три девятки / Triple 9 [2016, США, Криминал, драма, триллер, WEB-DLRip]

Ответить на тему

Статистика раздачи [Обновить пиров]
Размер:  1.46 GB   |    Зарегистрирован:  7 месяцев 2 дня   |    Скачан:  2 раза
Сидов:  4  [  0 KB/s  ]   Подробная статистика пиров
   
 
Автор Сообщение

Admin ®

Стаж: 7 месяцев 14 дней

Сообщений: 4459

Откуда: trackeroc.ru


Пост 06-Мар-2016 13:34

[Цитировать]

Три девятки / Triple 9
«Законы улицы не делятся на черные и белые»
- Год выхода: 2016
Выпущено: США / Anonymous Content
Жанр: криминал, драма, триллер
Продолжительность: 01:50:34
Перевод: Профессиональный (полное дублирование)
Субтитры: нет-Режиссер:
Джон Хиллкоут / John Hillcoat-В ролях:
Аарон Пол, Кейт Уинслет, Вуди Харрельсон, Кейси Аффлек, Энтони Маки, Чиветел Эджиофор, Галь Гадот, Норман Ридус, Тереза Палмер, Майкл Кеннет Уильямс, Клифтон Коллинз мл., Мишель Энг, Терренс Розмор, Терри Эбни, Александр Бабара, Энтони Белевцов, Луис Да Силва мл., Йен Касселберри, Э. Роджер Митчелл, Блейк МакЛеннан-О фильме:
Банда преступников и коррумпированных копов планирует убить полицейского, чтобы провернуть ограбление на другом конце города.-IMDB | КиноПоиск | Сэмпл |-Качество: WEB-DLRip
Формат: AVI
Видео: 720x304 (2.37:1), 25 fps, XviD build 67 ~1493 kbps avg, 0.27 bit/pixel
Аудио: 48 kHz, AC3 Dolby Digital, 3/2 (L,C,R,l,r) + LFE ch, ~384 kbps - iTunes Russia
-

Скриншоты

-

MediaInfo

Код:
eneral
Complete name                            : D:\Tri_devyatki_2016_WEB-DLRip_iT_by_Dalemake.avi
Format                                   : AVI
Format/Info                              : Audio Video Interleave
File size                                : 1.46 GiB
Duration                                 : 1h 50mn
Overall bit rate                         : 1 887 Kbps
Writing application                      : VirtualDubMod 1.5.10.3 | www.virtualdub-fr.org || (build 2550/release)
Writing library                          : VirtualDubMod build 2550/release
Video
ID                                       : 0
Format                                   : MPEG-4 Visual
Format profile                           : Advanced Simple@L5
Format settings, BVOP                    : 1
Format settings, QPel                    : No
Format settings, GMC                     : No warppoints
Format settings, Matrix                  : Custom
Codec ID                                 : XVID
Codec ID/Hint                            : XviD
Duration                                 : 1h 50mn
Bit rate                                 : 1 494 Kbps
Width                                    : 720 pixels
Height                                   : 304 pixels
Display aspect ratio                     : 2.35:1
Frame rate                               : 25.000 fps
Color space                              : YUV
Chroma subsampling                       : 4:2:0
Bit depth                                : 8 bits
Scan type                                : Progressive
Compression mode                         : Lossy
Bits/(Pixel*Frame)                       : 0.273
Stream size                              : 1.15 GiB (79%)
Writing library                          : XviD 67
Audio
ID                                       : 1
Format                                   : AC-3
Format/Info                              : Audio Coding 3
Mode extension                           : CM (complete main)
Format settings, Endianness              : Big
Codec ID                                 : 2000
Duration                                 : 1h 50mn
Bit rate mode                            : Constant
Bit rate                                 : 384 Kbps
Channel(s)                               : 6 channels
Channel positions                        : Front: L C R, Side: L R, LFE
Sampling rate                            : 48.0 KHz
Frame rate                               : 31.250 fps (1536 spf)
Compression mode                         : Lossy
Stream size                              : 304 MiB (20%)
Alignment                                : Split accross interleaves
Interleave, duration                     : 40 ms (1.00 video frame)
Interleave, preload duration             : 500 ms
-


Смотреть онлайн

[trackeroc.ru].11960.torrent 
Торрент: Зарегистрирован   [ 2016-05-07 19:23 ]

Скачать торрент

15 KB

Статус: проверено
Скачан: 14 раз
Размер: 1.46 GB
 


_________________
[Профиль] [ЛС]
Показать сообщения:    
Ответить на тему

Текущее время: Сегодня 01:03

Часовой пояс: GMT + 4



Вы не можете начинать темы
Вы не можете отвечать на сообщения
Вы не можете редактировать свои сообщения
Вы не можете удалять свои сообщения
Вы не можете голосовать в опросах
Вы не можете прикреплять файлы к сообщениям
Вы можете скачивать файлы