Три Русских Богатыря (2012-2013) WEB-DLRip (серии 1-18)

Ответить на тему

Статистика раздачи [Обновить пиров]
Скачали
Размер:  481 MB   |    Зарегистрирован:  1 год   |    Скачан:  7 раз

Полного источника не было: 17 дней

 
 
 
 
Автор Сообщение

BiOS ®

Стаж: 2 года 7 месяцев

Сообщений: 1733

Откуда: Raccoon City


Пост 14-Ноя-2015 21:07

[Цитировать]

Три Русских Богатыря - Производство: Россия, Студия "Красная МЕДУЗА"
Жанр: Рисованная анимация, Комедия
Режиссер: Борис Кравченко
Описание:
Мультсериал о приключения трех богатырей практически повсюду, начиная от компьютерных игр прошлого столетия, заканчивая спасением Красной Шапочки в заколдованном лесу и даже спасение Земли от захватчиков. Короткометражные серии наполнены позитивом и хорошим не стандартным юмором, который мы увидим в жанре анимационной мультипликации. Главное достоинство наших героев то, что в любой сложной ситуации они находят выход, и как всегда все идет в их пользу.
Продолжительность: ~00:02:30
Качество видео: WEB-DLRip
Видео: Xvid, 720x400, ~1204 Кбит/с
Аудио: MP3, 2 ch, 224 Кбит/с, CBR
Семпл: Скачать

Список серий

1. Три Богатыря против 300 Спартанцев-300 / Spartans vs Three russian bogaturs
2. Три Богатыря и Годзилла / GODZILA vs Three russian bogaturs
3. Три Богатыря и Супер Марио / Super Mario & Three russian bogaturs
4. Три Богатыря и Красная Шапочка / Red Hood & Three russian bogaturs
5. Три Богатыря и 'Титаник' / Titanic & Three russian bogaturs
6. Три Богатыря против Дарт Вейдера / Dart Vader vs Three russian bogaturs
7. Три богатыря против Черепашек Ниндзя / Ninja Turtles vs Three Russian Bogaturs
8. Три богатыря и Астероид / Three Russian Bogaturs & Asteroid
9. Три богатыря и Снежная Королева / Three Russian Bogaturs & Snow Queen
10. Три богатыря против Смерти / Death vs Three Russian Bogaturs
11. Три богатыря против Фредди Крюгера / Freddy Krueger vs Three Russian Bogaturs
12. Три богатыря и 8 Марта / Three Russian Bogaturs and 8 March
13. Иван Царевич и серый волк - Прыжки с трамплина , Ivan Tsarevich and the Grey Wolf
14. Иван Царевич и серый волк - Фигурное катание / Ivan Tsarevich and the Grey Wolf &
15. Три Богатыря - Кёрлинг / Three Russian Bogaturs & Curling
16. Три Богатыря - Бобслей / Three Russian Bogaturs & Bobsleigh
17. Три богатыря и Хоккей / Three Russian Bogaturs & HOCKEY
18. Три богатыря и Биатлон / Three Russian Bogaturs & BIATHLON

Mediainfo

Код:
Общее
Полное имя                               : D:\Tri.Russkih.Bogatuirea\001. Три Богатыря и Красная Шапочка.avi
Формат                                   : AVI
Формат/Информация                        : Audio Video Interleave
Размер файла                             : 29,5 Мбайт
Продолжительность                        : 2 м. 52 с.
Режим общего битрейта                    : Переменный
Общий поток                              : 1438 Кбит/сек
Программа кодирования                    : VirtualDubMod 1.5.10.2 (build 2540/release)
Библиотека кодирования                   : VirtualDubMod build 2540/release
Видео
Идентификатор                            : 0
Формат                                   : MPEG-4 Visual
Профиль формата                          : Simple@L3
Параметр BVOP формата                    : Нет
Параметр QPel формата                    : Нет
Параметр GMC формата                     : Без точки перехода
Параметр матрицы формата                 : Default (H.263)
Идентификатор кодека                     : XVID
Идентификатор кодека/Подсказка           : XviD
Продолжительность                        : 2 м. 52 с.
Битрейт                                  : 1204 Кбит/сек
Ширина                                   : 720 пикселей
Высота                                   : 400 пикселей
Соотношение сторон                       : 16:9
Частота кадров                           : 25,000 кадров/сек
Цветовое пространство                    : YUV
Субдискретизация насыщенности            : 4:2:0
Битовая глубина                          : 8 бит
Тип развёртки                            : Прогрессивная
Метод сжатия                             : С потерями
Бит/(Пиксели*Кадры)                      : 0.167
Размер потока                            : 24,7 Мбайт (84%)
Библиотека кодирования                   : XviD 1.2.1 (UTC 2008-12-04)
Аудио
Идентификатор                            : 1
Формат                                   : MPEG Audio
Версия формата                           : Version 1
Профиль формата                          : Layer 3
Режим                                    : Joint stereo
Расширение режима                        : MS Stereo
Идентификатор кодека                     : 55
Идентификатор кодека/Подсказка           : MP3
Продолжительность                        : 2 м. 52 с.
Вид битрейта                             : Переменный
Битрейт                                  : 224 Кбит/сек
Каналы                                   : 2 канала
Частота                                  : 48,0 КГц
Метод сжатия                             : С потерями
Размер потока                            : 4,60 Мбайт (16%)
Выравнивание                             : Разделение по промежуткам
Продолжительность промежутка             : 41  мс. (1,03 видеокадр)
Время предзагрузки промежутка            : 534  мс.
Библиотека кодирования                   : LAME3.96.1
-Скриншоты:


Смотреть онлайн

[trackeroc.ru].9772.torrent 
Торрент: Зарегистрирован   [ 2015-11-14 21:07 ]

Скачать торрент

21 KB

Статус: проверено
Скачан: 88 раз
Размер: 481 MB
 

Admin (14-ноя-15), Angel (16-ноя-15)

_________________
[Профиль] [ЛС]
Показать сообщения:    
Ответить на тему

Текущее время: Сегодня 22:13

Часовой пояс: GMT + 4



Вы не можете начинать темы
Вы не можете отвечать на сообщения
Вы не можете редактировать свои сообщения
Вы не можете удалять свои сообщения
Вы не можете голосовать в опросах
Вы не можете прикреплять файлы к сообщениям
Вы можете скачивать файлы