Тряпичный союз [2016, Комедия, драма, WEB-DLRip] скачать торрент

Ответить на тему

Статистика раздачи [Обновить пиров]
Скачали
Размер:  1.46 GB   |    Зарегистрирован:  1 год 6 месяцев   |    Скачан:  6 раз

Полного источника не было: 3 месяца 10 дней

 
   
 
 
 
Автор Сообщение

Admin ®

Стаж: 3 года 5 месяцев

Сообщений: 5586

Откуда: Скачать торрент


Пост 28-Мар-2016 11:54

[Цитировать]

Тряпичный союз- Год выхода: 2016
Выпущено: Россия / Кинокомпания Коктебель
Жанр: комедия, драма
Продолжительность: 01:38:40-Режиссер:
Михаил Местецкий-В ролях:
Иван Янковский, Александр Паль, Василий Буткевич, Павел Чинарёв, Анастасия Пронина, Федор Лавров, Елена Нестерова, Владислав Ветров, Кирилл Кяро, Андрей Крыжний-О фильме:
Жизнь тихого подростка Вани меняется после знакомства с тремя очень странными парнями. Спортсмены, хулиганы, мечтатели, они называют себя «Тряпичный Союз» и верят, что изменят весь мир. Очарованный новой дружбой, Ваня поселяет парней у себя на даче и всеми силами пытается стать частью их «величайшей организации». Но у соседской девочки Саши свои планы на эту компанию.-| | КиноПоиск | Сэмпл |-Качество: WEB-DLRip [WEB-DL | 1080p]
Формат: AVI
Видео: 704x400 (1.76:1), 24.000 fps, XviD build 67 ~1720 kbps avg, 0.25 bit/pixel
Аудио: 48 kHz, AC3 Dolby Digital, 3/2 (L,C,R,l,r) + LFE ch, ~384.00 kbps avg
-

Скриншоты

MediaInfo

Код:
Общее
Полное имя                               : D:\Tryapi4nyi_souz_2016_WEB-DLRip_by_Dalemake.avi
Формат                                   : AVI
Формат/Информация                        : Audio Video Interleave
Размер файла                             : 1,46 Гбайт
Продолжительность                        : 1 ч. 38 м.
Общий поток                              : 2114 Кбит/сек
Программа кодирования                    : VirtualDubMod 1.5.10.3 | www.virtualdub-fr.org || (build 2550/release)
Библиотека кодирования                   : VirtualDubMod build 2550/release
Видео
Идентификатор                            : 0
Формат                                   : MPEG-4 Visual
Профиль формата                          : Advanced Simple@L5
Параметр BVOP формата                    : 1
Параметр QPel формата                    : Нет
Параметр GMC формата                     : Без точки перехода
Параметр матрицы формата                 : Выборочная
Идентификатор кодека                     : XVID
Идентификатор кодека/Подсказка           : XviD
Продолжительность                        : 1 ч. 38 м.
Битрейт                                  : 1721 Кбит/сек
Ширина                                   : 704 пикселя
Высота                                   : 400 пикселей
Соотношение сторон                       : 16:9
Частота кадров                           : 24,000 кадра/сек
Цветовое пространство                    : YUV
Субдискретизация насыщенности            : 4:2:0
Битовая глубина                          : 8 бит
Тип развёртки                            : Прогрессивная
Метод сжатия                             : С потерями
Бит/(Пиксели*Кадры)                      : 0.255
Размер потока                            : 1,19 Гбайт (81%)
Библиотека кодирования                   : XviD 67
Аудио
Идентификатор                            : 1
Формат                                   : AC-3
Формат/Информация                        : Audio Coding 3
Расширение режима                        : CM (complete main)
Параметр Endianness формата              : Big
Идентификатор кодека                     : 2000
Продолжительность                        : 1 ч. 38 м.
Вид битрейта                             : Постоянный
Битрейт                                  : 384 Кбит/сек
Каналы                                   : 6 каналов
Расположение каналов                     : Front: L C R, Side: L R, LFE
Частота                                  : 48,0 КГц
Битовая глубина                          : 16 бит
Метод сжатия                             : С потерями
Размер потока                            : 271 Мбайт (18%)
Выравнивание                             : Разделение по промежуткам
Продолжительность промежутка             : 42  мс. (1,00 видеокадр)
Время предзагрузки промежутка            : 500  мс.
-


Смотреть онлайн


[trackerock.ru].12303.torrent 
Торрент: Зарегистрирован   [ 2016-03-28 11:54 ]

Скачать торрент

15 KB

Статус: проверено
Скачан: 38 раз
Размер: 1.46 GB
 

Похожие торренты
Форум Тема Автор Размер
Песочницы, Sandbox Starbound v1.3.3 [2016] (RUS/ENG) Admin 669 MB
Зомби игры, Survival, Horror Project Zomboid [Vehicles / Транспорт / Машины / Test build 24.2] [Early Access] (2016) [ENG+RUS] Repack DD _DD_ 1012 MB
Зомби игры, Survival, Horror Project Zomboid [build 38.24] [Early Access] (2016) [ENG+RUS] Repack DD Buyan 645 MB
Песочницы, Sandbox MAIA v0.64u1 (20.10.2017) [Early Access] (2016) (ENG) Repack DD Admin 438 MB
Cимуляторы American Truck Simulator [v1.28.1.2s + 15 DLC] (2016) [Ru/Multi] RePack от qoob BiOS 1.06 GB

_________________
[Профиль] [ЛС]
Показать сообщения:    
Ответить на тему

Текущее время: Сегодня 03:23

Часовой пояс: GMT + 4



Вы не можете начинать темы
Вы не можете отвечать на сообщения
Вы не можете редактировать свои сообщения
Вы не можете удалять свои сообщения
Вы не можете голосовать в опросах
Вы не можете прикреплять файлы к сообщениям
Вы можете скачивать файлы