Цифровые декорации - Час колдовства / AtmosFEARfx - Witching Hour (2015) HDRip [H.264/1080p]

Ответить на тему
 
Автор Сообщение

BiOS ®

Стаж: 2 года 7 месяцев

Сообщений: 1732

Откуда: Raccoon City


Пост 27-Окт-2015 13:43

[Цитировать]

Цифровые декорации - Час колдовства / AtmosFEARfx - Witching Hour - Производство: AtmosFX
Жанр: Анимация, Короткометражный
Описание:
"Цифровые декорации для любых случаев", - гласит слоган компании AtmosFX. Серия AtmosFEARfx посвящена празднику Хэллоуин.
Окунитесь в атмосферу логова колдуньи, где обитают летучие мыши, черные кошки и вороны. Там, где волшебница бормочет магические заклинания и вызывает причудливых духов.
Эта тематическая подборка анимации в высоком разрешении предназначена специально для детей.
Предусмотрено 4 варианта использования:
* отображение на обычном мониторе/телевизоре,
* проекция на окно (проекция на прозрачную ткань, вроде тюли или москитной сетки),
* голограмма (аналогичная проекция, но без фоновой графики),
* 3D-объект (проекция на светлый манекен в форме человека. Видеоряд в этом варианте подобран так, что при направлении луча проектора на манекен, последний оживает).
Продолжительность: 19 роликов, от 00:01:17 до 00:02:34 каждый
Качество видео: HDRip
Перевод: Отсутствует
Язык: Английский
Видео: AVC/H.264, 1920x1080, ~9000 kbps
Аудио: AAC, 2 ch, 192 kbps, VBR

Mediainfo

Пример для одного из 19 роликов, остальные аналогичны.
Код:
General
Format                         : MPEG-4
Format profile                 : Base Media / Version 2
Codec ID                       : mp42
File size                      : 168 MiB
Duration                       : 2mn 33s
Overall bit rate mode          : Variable
Overall bit rate               : 9 183 Kbps
Encoded date                   : UTC 2015-08-04 16:59:25
Tagged date                    : UTC 2015-08-04 16:59:27
©TIM                           : 00;00;00;00
©TSC                           : 30000
©TSZ                           : 1001
Video
ID                             : 1
Format                         : AVC
Format/Info                    : Advanced Video Codec
Format profile                 : Main@L4.2
Format settings, CABAC         : Yes
Format settings, ReFrames      : 3 frames
Codec ID                       : avc1
Codec ID/Info                  : Advanced Video Coding
Duration                       : 2mn 33s
Source duration                : 2mn 33s
Bit rate                       : 8 988 Kbps
Width                          : 1 920 pixels
Height                         : 1 080 pixels
Display aspect ratio           : 16:9
Frame rate mode                : Variable
Frame rate                     : 29.970 fps
Minimum frame rate             : 29.970 fps
Maximum frame rate             : 30.000 fps
Standard                       : NTSC
Color space                    : YUV
Chroma subsampling             : 4:2:0
Bit depth                      : 8 bits
Scan type                      : Progressive
Bits/(Pixel*Frame)             : 0.145
Stream size                    : 164 MiB (98%)
Source stream size             : 164 MiB (98%)
Language                       : English
Encoded date                   : UTC 2015-08-04 16:59:25
Tagged date                    : UTC 2015-08-04 16:59:25
Color range                    : Limited
mdhd_Duration                  : 153487
Audio
ID                             : 2
Format                         : AAC
Format/Info                    : Advanced Audio Codec
Format profile                 : LC
Codec ID                       : 40
Duration                       : 2mn 33s
Source duration                : 2mn 33s
Bit rate mode                  : Variable
Bit rate                       : 192 Kbps
Maximum bit rate               : 285 Kbps
Channel(s)                     : 2 channels
Channel positions              : Front: L R
Sampling rate                  : 48.0 KHz
Compression mode               : Lossy
Stream size                    : 3.47 MiB (2%)
Source stream size             : 3.47 MiB (2%)
Language                       : English
Encoded date                   : UTC 2015-08-04 16:59:25
Tagged date                    : UTC 2015-08-04 16:59:25
mdhd_Duration                  : 153536

Дополнительная информация

Русское название и описание - вольный перевод от Divis​i0n_b​y_zer​0​, т.к. диск на русском языке никогда не издавался.
Скриншоты:
Похожие торренты
Форум Тема Автор Размер
Документальные Трейлеры Цифровые декорации - Ожившие портреты / AtmosFEARfx - Unliving Portraits (2014) HDRip BiOS 820 MB
Документальные Трейлеры Цифровые декорации - Потусторонние гости / AtmosFEARfx - Phantasms (2015) HDRip [H.264/1080p] BiOS 3.03 GB

_________________
[Профиль] [ЛС]
Показать сообщения:    
Ответить на тему

Текущее время: Сегодня 11:50

Часовой пояс: GMT + 4



Вы не можете начинать темы
Вы не можете отвечать на сообщения
Вы не можете редактировать свои сообщения
Вы не можете удалять свои сообщения
Вы не можете голосовать в опросах
Вы не можете прикреплять файлы к сообщениям
Вы не можете скачивать файлы