Тюрьма / Prison (1987) BDRip [H.264/1080p]

Ответить на тему

Статистика раздачи [Обновить пиров]
Размер:  7.3 GB   |    Зарегистрирован:  1 год   |    Скачан:  0 раз

Полного источника не было: 1 год

 
 
 
 
Автор Сообщение

BiOS ®

Стаж: 2 года 7 месяцев

Сообщений: 1738

Откуда: Raccoon City


Пост 07-Дек-2015 00:31

[Цитировать]

Тюрьма / Prison
«Horror Has A New Home»
- Производство: США / Empire Pictures
Жанр: Ужасы, Триллер, Драма, Криминал
Режиссер: Ренни Харлин
Актеры: Вигго Мортенсен, Челси Филд, Лейн Смит, Линкольн Килпэтрик, Том Эверетт, Иван Кэйн, Андре Де Шилдс, Томми Листер, Стефен Е. Литтл
Описание:
В 1964 году Чарлз Форсайт был посажен на электрический стул за убийство, совершенное им в тюрьме. Жалобы заключенных на пытки и жестокость привели к закрытию тюрьмы. Через двадцать лет тюрьму открыли, и во главе ее стал тот же директор, что и прежде. Дух казненного возвращается, чтобы отомстить своему тюремщику.
Возраст: 16+ (зрителям, достигшим 16 лет)
Рейтинг MPAA: R (лицам до 17 лет обязательно присутствие взрослого)
Дата мировой премьеры: 8 декабря 1987
Дата выхода DVD/Blu-ray релиза: 30 июля 2009, «Настроение Video»

Продолжительность: 01:42:54
Качество видео: BDRip (SceneRip)
Перевод: Многоголосый закадровый, профессиональный, авторский одноголосый (Михалев)
Вид субтитров: Вшитые отключаемые
Видео: AVC/H.264, 1920x1080 (16:9), 23.976 fps, ~9139 Kbps (0.184 bit/pixel)
Аудио №1: AC-3, 48.0 KHz, 6 ch, 384 Kbps, CBR (Русский MVO)
Аудио №2: AC-3, 48.0 KHz, 2 ch, 192 Kbps, CBR (Русский AVO)
Аудио №3: AC-3, 48.0 KHz, 6 ch, 448 Kbps, CBR (Английский)

Mediainfo:

Код:
General
Unique ID                      : 190307200914143457339440889996551450105 (0x8F2BD56C88054B17B7FFED500184EDF9)
Complete name                  : C:\Фильмы\Prizon.1987.BDRip.1080p.mkv
Format                         : Matroska
Format version                 : Version 2
File size                      : 7.30 GiB
Duration                       : 1h 42mn
Overall bit rate               : 10.2 Mbps
Encoded date                   : UTC 2015-11-28 18:45:38
Writing application            : mkvmerge v5.7.0 ('The Whirlwind') built on Jul 29 2012 15:12:35
Writing library                : libebml v1.2.3 + libmatroska v1.3.0
Video
ID                             : 1
Format                         : AVC
Format/Info                    : Advanced Video Codec
Format profile                 : High@L4.1
Format settings, CABAC         : Yes
Format settings, ReFrames      : 4 frames
Codec ID                       : V_MPEG4/ISO/AVC
Duration                       : 1h 42mn
Bit rate                       : 9 139 Kbps
Width                          : 1 920 pixels
Height                         : 1 080 pixels
Display aspect ratio           : 16:9
Frame rate mode                : Constant
Frame rate                     : 23.976 fps
Color space                    : YUV
Chroma subsampling             : 4:2:0
Bit depth                      : 8 bits
Scan type                      : Progressive
Bits/(Pixel*Frame)             : 0.184
Stream size                    : 6.42 GiB (88%)
Writing library                : x264 core 129 r2245 bc13772
Encoding settings              : cabac=1 / ref=4 / deblock=1:0:0 / analyse=0x3:0x133 / me=umh / subme=7 / psy=1 / psy_rd=1.00:0.00 / mixed_ref=1 / me_range=16 / chroma_me=1 / trellis=1 / 8x8dct=1 / cqm=0 / deadzone=21,11 / fast_pskip=0 / chroma_qp_offset=-2 / threads=12 / lookahead_threads=2 / sliced_threads=0 / nr=0 / decimate=1 / interlaced=0 / bluray_compat=0 / constrained_intra=0 / bframes=3 / b_pyramid=2 / b_adapt=1 / b_bias=0 / direct=1 / weightb=1 / open_gop=0 / weightp=2 / keyint=250 / keyint_min=23 / scenecut=40 / intra_refresh=0 / rc_lookahead=40 / rc=2pass / mbtree=1 / bitrate=9139 / ratetol=1.0 / qcomp=0.60 / qpmin=0 / qpmax=69 / qpstep=4 / cplxblur=20.0 / qblur=0.5 / ip_ratio=1.40 / aq=1:1.00
Language                       : English
Default                        : Yes
Forced                         : No
Audio #1
ID                             : 2
Format                         : AC-3
Format/Info                    : Audio Coding 3
Mode extension                 : CM (complete main)
Format settings, Endianness    : Big
Codec ID                       : A_AC3
Duration                       : 1h 42mn
Bit rate mode                  : Constant
Bit rate                       : 384 Kbps
Channel(s)                     : 6 channels
Channel positions              : Front: L C R, Side: L R, LFE
Sampling rate                  : 48.0 KHz
Bit depth                      : 16 bits
Compression mode               : Lossy
Stream size                    : 283 MiB (4%)
Title                          : Профессиональный (многоголосый, закадровый)
Language                       : Russian
Default                        : Yes
Forced                         : No
Audio #2
ID                             : 3
Format                         : AC-3
Format/Info                    : Audio Coding 3
Mode extension                 : CM (complete main)
Format settings, Endianness    : Big
Codec ID                       : A_AC3
Duration                       : 1h 42mn
Bit rate mode                  : Constant
Bit rate                       : 192 Kbps
Channel(s)                     : 2 channels
Channel positions              : Front: L R
Sampling rate                  : 48.0 KHz
Bit depth                      : 16 bits
Compression mode               : Lossy
Stream size                    : 141 MiB (2%)
Title                          : Авторский (одноголосый, закадровый) - Михалёв
Language                       : Russian
Default                        : No
Forced                         : No
Audio #3
ID                             : 4
Format                         : AC-3
Format/Info                    : Audio Coding 3
Mode extension                 : CM (complete main)
Format settings, Endianness    : Big
Codec ID                       : A_AC3
Duration                       : 1h 42mn
Bit rate mode                  : Constant
Bit rate                       : 448 Kbps
Channel(s)                     : 6 channels
Channel positions              : Front: L C R, Side: L R, LFE
Sampling rate                  : 48.0 KHz
Bit depth                      : 16 bits
Compression mode               : Lossy
Stream size                    : 330 MiB (4%)
Title                          : Original
Language                       : English
Default                        : No
Forced                         : No
Text
ID                             : 5
Format                         : UTF-8
Codec ID                       : S_TEXT/UTF8
Codec ID/Info                  : UTF-8 Plain Text
Title                          : English
Language                       : English
Default                        : No
Forced                         : No
Menu
00:00:00.000                   : en:00:00:00.000
00:11:21.764                   : en:00:11:21.764
00:22:54.957                   : en:00:22:54.957
00:36:55.839                   : en:00:36:55.839
00:42:16.534                   : en:00:42:16.534
00:52:10.961                   : en:00:52:10.961
00:58:38.849                   : en:00:58:38.849
01:06:28.985                   : en:01:06:28.985
01:14:46.315                   : en:01:14:46.315
01:23:41.016                   : en:01:23:41.016
01:31:45.500                   : en:01:31:45.500
01:38:46.295                   : en:01:38:46.295
-Скриншоты:


Смотреть онлайн

[trackeroc.ru].10311.torrent 
Торрент: Зарегистрирован   [ 2015-12-07 00:31 ]

Скачать торрент

37 KB

Статус: проверено
Скачан: 14 раз
Размер: 7.3 GB
 

trackerbot (06-дек-15)
Похожие торренты
Форум Тема Автор Размер
Инди Sandbox (Linux+Mac) Prison Architect v2.0.1C [Update 10C] (2015) [Ru/Multi] GOG Admin 1024 MB
Песочницы , Sandbox Prison Architect v2.0.1C [Update 10C] (2015) (RUS|ENG) GOG Admin 691 MB
Боевики Побег из тюрьмы: Финальный побег / Prison Break: The Final Break (2009) BDRip [H.264/720p] BiOS 4.97 GB
Фантастика Фэнтези Акулы на свободе / Sharkansas Women's Prison Massacre (2016) WEB-DLRip Admin 1.37 GB

_________________
[Профиль] [ЛС]
Показать сообщения:    
Ответить на тему

Текущее время: Сегодня 02:09

Часовой пояс: GMT + 4



Вы не можете начинать темы
Вы не можете отвечать на сообщения
Вы не можете редактировать свои сообщения
Вы не можете удалять свои сообщения
Вы не можете голосовать в опросах
Вы не можете прикреплять файлы к сообщениям
Вы можете скачивать файлы