Улица потрошителя / Ripper Street / Сезон: 3 / Серии: 1-8 (8)

Ответить на тему

Статистика раздачи [Обновить пиров]
Размер:  6.32 GB   |    Зарегистрирован:  1 год 3 месяца   |    Скачан:  0 раз

Полного источника не было: 1 год 3 месяца

 
 
 
 
Автор Сообщение

Admin ®

Стаж: 7 месяцев 13 дней

Сообщений: 4454

Откуда: trackeroc.ru


Пост 08-Авг-2015 13:41

[Цитировать]

Улица потрошителя / Ripper Street--- Год выпуска: 2014-2015
Страна: Великобритания | BBC One
Жанр: детектив, драма, криминал
Продолжительность: ~01:07:00
Перевод: многоголосое профессиональное закадровое озвучание NewStudio
Субтитры: нет-Режиссёры: Энди Уилсон, Том Шенклэнд, Колм МакКарти и др.
В ролях: Мэтью Макфейден, Джером Флинн, Адам Ротенберг, Дэвид Уилмот, МайАнна Бёринг, Шарлин МакКенна и др.
Описание: События данного сериала разворачиваются в Лондоне 1899 года, сразу после громких убийств, совершенных Джеком Потрошителем. Команда детективов расследует преступления, попутно стараясь успокоить панику среди жителей Ист-Энда.-Качество: WEBRip
Формат: AVI
Видео кодек: XviD
Аудио кодек: MP3
Видео: 720x400 (16:9), 25.000 fps, 1200 kbps, 0.167 bit/pixel
Аудио 1: 48 kHz, 2 ch, 128 kbps - Russian
Аудио 2: 48 kHz, 2 ch, 128 kbps - English-Релиз:

Перевод: Александра Цернант и Самира Гайад.
Озвучание: NewStudioGroup.-Сэмпл | TVRage-

Список серий

17 3x01 14/Nov/2014 Whitechapel Terminus N/A
18 3x02 14/Nov/2014 The Beating of Her Wings N/A
19 3x03 21/Nov/2014 Ashes and Diamonds 8
20 3x04 28/Nov/2014 Your Father. My Friend 8
21 3x05 05/Dec/2014 Heavy Boots 8
22 3x06 12/Dec/2014 The Incontrovertible Truth 9
23 3x07 19/Dec/2014 Live Free, Live True N/A
24 3x08 26/Dec/2014 The Peace of Edmund Reid N/A

Скриншоты

MI

Общее:Формат : AVIФормат/Информация : Audio Video InterleaveРазмер файла : 700 МбайтПродолжительность : 1 ч. 6 м.Общий поток : 1471 Кбит/секПрограмма кодирования : VirtualDubMod 1.5.10.2 (build 2540/release)Библиотека кодирования : VirtualDubMod build 2540/release
Видео:Формат : MPEG-4 VisualПрофиль формата : Advanced Simple@L5Параметр BVOP формата : 2Параметр QPel формата : НетПараметр GMC формата : Без точки переходаПараметр матрицы формата : Default (MPEG)Идентификатор кодека : XVIDИдентификатор кодека/Подсказка : XviDПродолжительность : 1 ч. 6 м.Битрейт : 1200 Кбит/секШирина : 720 пикселейВысота : 400 пикселейСоотношение сторон : 16:9Частота кадров : 25,000 кадров/секЦветовое пространство : YUVСубдискретизация насыщенности : 4:2:0Битовая глубина : 8 битТип развёртки : ПрогрессивнаяМетод сжатия : С потерямиБит/(Пиксели*Кадры) : 0.167Размер потока : 571 Мбайт (82%)Библиотека кодирования : XviD 64
Аудио #1:Формат : MPEG AudioВерсия формата : Version 1Профиль формата : Layer 3Режим : Joint stereoРасширение режима : MS StereoИдентификатор кодека : 55Идентификатор кодека/Подсказка : MP3Продолжительность : 1 ч. 6 м.Вид битрейта : ПостоянныйБитрейт : 128 Кбит/секКаналы : 2 каналаЧастота : 48,0 КГцМетод сжатия : С потерямиРазмер потока : 60,9 Мбайт (9%)Выравнивание : Соединение по промежуткамПродолжительность промежутка : 40 мс. (1,00 видеокадр)Время предзагрузки промежутка : 504 мс.
Аудио #2:Формат : MPEG AudioВерсия формата : Version 1Профиль формата : Layer 3Режим : Joint stereoРасширение режима : MS StereoИдентификатор кодека : 55Идентификатор кодека/Подсказка : MP3Продолжительность : 1 ч. 6 м.Вид битрейта : ПостоянныйБитрейт : 128 Кбит/секКаналы : 2 каналаЧастота : 48,0 КГцМетод сжатия : С потерямиРазмер потока : 60,9 Мбайт (9%)Выравнивание : Соединение по промежуткамПродолжительность промежутка : 40 мс. (1,00 видеокадр)Время предзагрузки промежутка : 504 мс.Библиотека кодирования : LAME3.99rНастройки программы : -m j -V 4 -q 2 -lowpass 17 -b 128

Внимание! Раздача ведётся путём добавления новых серий

Внимание! Раздача ведётся путём добавления новых серий; при каждом добавлении создаётся новый торрент. Чтобы начать докачку новой серии, пользователям необходимо сделать следующее:
(1) остановить скачивание,
(2) удалить старый торрент у себя из клиента (старые серии удалять не надо),
(3) скачать новый торрент и запустить его у себя в клиенте вместо старого, при этом указать клиенту путь в старую папку куда и должно происходить скачивание новых серий.
Ваш клиент при этом должен произвести хеширование (проверку) старой папки (если не производит сам - помогите ему сделать это), и будет докачивать только те серии которых у вас ещё нет. Старые серии при этом не удаляются, а продолжают раздаваться!
Eсли вы уже удалили старые серии, то предотвратить повторную закачку старых серий можно, отжав галочку в соответствующих местах при запуске нового торрента. По возможности, желательно не удалять старые серии как можно дольше чтобы релизёр не столько продолжал раздавать старые серии, а смог сконцентрироваться на новых.


Смотреть онлайн

[trackeroc.ru].7392.torrent 
Торрент: Зарегистрирован   [ 2015-08-08 13:41 ]

Скачать торрент

33 KB

Статус: проверено
Скачан: 8 раз
Размер: 6.32 GB
 


_________________
[Профиль] [ЛС]
Показать сообщения:    
Ответить на тему

Текущее время: Сегодня 11:46

Часовой пояс: GMT + 4



Вы не можете начинать темы
Вы не можете отвечать на сообщения
Вы не можете редактировать свои сообщения
Вы не можете удалять свои сообщения
Вы не можете голосовать в опросах
Вы не можете прикреплять файлы к сообщениям
Вы можете скачивать файлы